Вы используете незарегистрированную версию компонента "Вкладки"!

Поиск

(Avant-Garde Jazz, Free Improvisation) Carlo Actis Dato - The Moonwalker - 2001, FLAC (tracks+.cue), lossless

(Avant-Garde Jazz, Free Improvisation) Carlo Actis Dato - The Moonwalker - 2001, FLAC (tracks+.cue), lossless
Треклист:
•Carlo Actis Dato - The Moonwalker•
Жанр: Avant-Garde Jazz, Free Improvisation
Год издания диска: 2001
Издатель (лейбл): Leo Records
Номер по каталогу: CD LR 311
Аудиокодек: FLAC (*.flac)
Тип рипа: tracks+.cue
Битрейт аудио: lossless
Продолжительность: 00:53:25
Источник (релизер): Рип с диска.
Наличие сканов в содержимом раздачи: нет
Треклист:
01. Arigato
02. Bad Rap 1
03. Fusi Orari
04. Thai children
05. Apaches
06. Cocodi
07. Sikasso
08. Bloody Christmas
09. Banda Sbandata
10. Kathmandu
11. Iga
12. Wonderful World
13. Marina
14. Wine & Water
15. Bad Rap 2
16. Marrakech
17. Oujda
18. Latin Lover
19. Wtches
20. Basta la pasta
21. Bali
22. Mikhail
23. Mambo n. 55
24. El Oued
25. Gamelan
26. Bad Rap 3
27. Arigato (same as 1)
28. Bad Rap 1
29. Fusi Orari
30. Mali
Personnel:Carlo Actis Dato - ts, bars, Bcl
 
Лог создания рипа
Exact Audio Copy V1.0 beta 3 from 29. August 2011
Отчёт EAC об извлечении, выполненном 6. февраля 2012, 16:27
Carlo Actis Dato / The Moonwalker
Дисковод: Optiarc DVD RW AD-5200A Adapter: 0 ID: 1
Режим чтения : Достоверность
Использование точного потока : Да
Отключение кэша аудио : Да
Использование указателей C2 : Нет
Коррекция смещения при чтении : 48
Способность читать области Lead-in и Lead-out : Нет
Заполнение пропущенных сэмплов тишиной : Да
Удаление блоков с тишиной в начале и конце : Нет
При вычислениях CRC использовались нулевые сэмплы : Да
Интерфейс : Установленный внешний ASPI-интерфейс
Обработка зазоров : Добавлено к предыдущему треку
Выходной формат : Пользовательский кодировщик
Выбранный битрейт : 128 kBit/s
Качество : Высокий
Добавление ID3-тега : Нет
Утилита сжатия : C:\Program Files\Exact Audio Copy\Flac\flac.exe
Дополнительные параметры : -V -8 -T "Genre=%genre%" -T "Artist=%artist%" -T "Title=%title%" -T "Album=%albumtitle%" -T "Date=%year%" -T "Tracknumber=%tracknr%" -T "Comment=%comment%" %source%
TOC извлечённого CD
Трек | Старт | Длительность | Начальный сектор | Конечный сектор
---------------------------------------------------------------------
1 | 0:00.00 | 0:05.35 | 0 | 409
2 | 0:05.35 | 1:54.66 | 410 | 9025
3 | 2:00.26 | 2:47.09 | 9026 | 21559
4 | 4:47.35 | 1:13.66 | 21560 | 27100
5 | 6:01.26 | 1:55.70 | 27101 | 35795
6 | 7:57.21 | 2:52.33 | 35796 | 48728
7 | 10:49.54 | 0:39.18 | 48729 | 51671
8 | 11:28.72 | 2:28.34 | 51672 | 62805
9 | 13:57.31 | 1:30.46 | 62806 | 69601
10 | 15:28.02 | 1:18.51 | 69602 | 75502
11 | 16:46.53 | 3:04.28 | 75503 | 89330
12 | 19:51.06 | 2:58.56 | 89331 | 102736
13 | 22:49.62 | 1:21.72 | 102737 | 108883
14 | 24:11.59 | 1:09.39 | 108884 | 114097
15 | 25:21.23 | 1:10.41 | 114098 | 119388
16 | 26:31.64 | 0:46.05 | 119389 | 122843
17 | 27:17.69 | 4:35.00 | 122844 | 143468
18 | 31:52.69 | 1:54.28 | 143469 | 152046
19 | 33:47.22 | 3:06.41 | 152047 | 166037
20 | 36:53.63 | 1:17.16 | 166038 | 171828
21 | 38:11.04 | 1:01.15 | 171829 | 176418
22 | 39:12.19 | 3:16.21 | 176419 | 191139
23 | 42:28.40 | 2:15.29 | 191140 | 201293
24 | 44:43.69 | 3:00.24 | 201294 | 214817
25 | 47:44.18 | 1:29.37 | 214818 | 221529
26 | 49:13.55 | 0:32.61 | 221530 | 223990
27 | 49:46.41 | 0:08.51 | 223991 | 224641
28 | 49:55.17 | 0:15.34 | 224642 | 225800
29 | 50:10.51 | 0:09.56 | 225801 | 226531
30 | 50:20.32 | 3:05.38 | 226532 | 240444
Трек 1
Имя файла F:\2001.Carlo Actis Dato - The Moonwalkers\01. Arigato.wav
Длина предзазора 0:00:02.00
Пиковый уровень 57.9 %
Скорость извлечения 0.3 X
Качество трека 100.0 %
CRC теста 2EFD371F
CRC копии 2EFD371F
Трек не обнаружен в базе AccurateRip
Копирование... OK
Трек 2
Имя файла F:\2001.Carlo Actis Dato - The Moonwalkers\02. Bad Rap 1.wav
Пиковый уровень 88.1 %
Скорость извлечения 1.7 X
Качество трека 99.9 %
CRC теста CC780A69
CRC копии CC780A69
Точность не определена (достоверность 2) [FD1B09D0], AccurateRip вернул [4DFD5018] (AR v2)
Копирование... OK
Трек 3
Имя файла F:\2001.Carlo Actis Dato - The Moonwalkers\03. Fusi Orari.wav
Пиковый уровень 89.0 %
Скорость извлечения 2.4 X
Качество трека 100.0 %
CRC теста 2DAE5860
CRC копии 2DAE5860
Точность не определена (достоверность 2) [12B1F4FC], AccurateRip вернул [E0AB3A58] (AR v2)
Копирование... OK
Трек 4
Имя файла F:\2001.Carlo Actis Dato - The Moonwalkers\04. Thai children.wav
Пиковый уровень 60.3 %
Скорость извлечения 2.0 X
Качество трека 100.0 %
CRC теста EAD085E0
CRC копии EAD085E0
Точность не определена (достоверность 2) [9054EF53], AccurateRip вернул [C219D740] (AR v2)
Копирование... OK
Трек 5
Имя файла F:\2001.Carlo Actis Dato - The Moonwalkers\05. Apaches.wav
Пиковый уровень 54.9 %
Скорость извлечения 2.4 X
Качество трека 100.0 %
CRC теста D5350B82
CRC копии D5350B82
Точность не определена (достоверность 2) [32F6150E], AccurateRip вернул [6B863016] (AR v2)
Копирование... OK
Трек 6
Имя файла F:\2001.Carlo Actis Dato - The Moonwalkers\06. Cocodi.wav
Пиковый уровень 72.0 %
Скорость извлечения 2.7 X
Качество трека 100.0 %
CRC теста 6600FBF7
CRC копии 6600FBF7
Точность не определена (достоверность 2) [D1A309C7], AccurateRip вернул [361D381E] (AR v2)
Копирование... OK
Трек 7
Имя файла F:\2001.Carlo Actis Dato - The Moonwalkers\07. Sikasso.wav
Пиковый уровень 67.7 %
Скорость извлечения 1.7 X
Качество трека 100.0 %
CRC теста 7EF89269
CRC копии 7EF89269
Точность не определена (достоверность 2) [549E6A2E], AccurateRip вернул [93F71E4C] (AR v2)
Копирование... OK
Трек 8
Имя файла F:\2001.Carlo Actis Dato - The Moonwalkers\08. Bloody Christmas.wav
Пиковый уровень 65.9 %
Скорость извлечения 2.8 X
Качество трека 100.0 %
CRC теста 1931C2AD
CRC копии 1931C2AD
Точность не определена (достоверность 2) [2C513D9A], AccurateRip вернул [FF2A7C83] (AR v2)
Копирование... OK
Трек 9
Имя файла F:\2001.Carlo Actis Dato - The Moonwalkers\09. Banda Sbandata.wav
Пиковый уровень 82.2 %
Скорость извлечения 1.9 X
Качество трека 99.8 %
CRC теста B2EF255F
CRC копии B2EF255F
Точность не определена (достоверность 2) [C9154D28], AccurateRip вернул [3F6FFEAE] (AR v2)
Копирование... OK
Трек 10
Имя файла F:\2001.Carlo Actis Dato - The Moonwalkers\10. Kathmandu.wav
Пиковый уровень 72.0 %
Скорость извлечения 1.9 X
Качество трека 99.8 %
CRC теста 38CEF6F5
CRC копии 38CEF6F5
Точность не определена (достоверность 2) [5419809B], AccurateRip вернул [428094BF] (AR v2)
Копирование... OK
Трек 11
Имя файла F:\2001.Carlo Actis Dato - The Moonwalkers\11. Iga.wav
Пиковый уровень 84.2 %
Скорость извлечения 3.1 X
Качество трека 100.0 %
CRC теста 89BFFCE7
CRC копии 89BFFCE7
Точность не определена (достоверность 2) [FE36B3D0], AccurateRip вернул [90FD5FE6] (AR v2)
Копирование... OK
Трек 12
Имя файла F:\2001.Carlo Actis Dato - The Moonwalkers\12. Wonderful World.wav
Пиковый уровень 84.2 %
Скорость извлечения 3.2 X
Качество трека 100.0 %
CRC теста A3F4BD0A
CRC копии A3F4BD0A
Точность не определена (достоверность 2) [0667DA85], AccurateRip вернул [A9DE8637] (AR v2)
Копирование... OK
Трек 13
Имя файла F:\2001.Carlo Actis Dato - The Moonwalkers\13. Marina.wav
Пиковый уровень 54.8 %
Скорость извлечения 2.0 X
Качество трека 99.8 %
CRC теста 4D94318B
CRC копии 4D94318B
Точность не определена (достоверность 2) [AA2F2FE2], AccurateRip вернул [A13FC10C] (AR v2)
Копирование... OK
Трек 14
Имя файла F:\2001.Carlo Actis Dato - The Moonwalkers\14. Wine & Water.wav
Пиковый уровень 66.5 %
Скорость извлечения 2.5 X
Качество трека 100.0 %
CRC теста 32133D87
CRC копии 32133D87
Точность не определена (достоверность 2) [1F2CEBE4], AccurateRip вернул [391C646A] (AR v2)
Копирование... OK
Трек 15
Имя файла F:\2001.Carlo Actis Dato - The Moonwalkers\15. Bad Rap 2.wav
Пиковый уровень 96.6 %
Скорость извлечения 2.6 X
Качество трека 100.0 %
CRC теста 8C227F68
CRC копии 8C227F68
Точность не определена (достоверность 2) [E47E1C38], AccurateRip вернул [76D9BC93] (AR v2)
Копирование... OK
Трек 16
Имя файла F:\2001.Carlo Actis Dato - The Moonwalkers\16. Marrakech.wav
Пиковый уровень 44.6 %
Скорость извлечения 2.2 X
Качество трека 100.0 %
CRC теста 386599D0
CRC копии 386599D0
Точность не определена (достоверность 2) [9FE2F62A], AccurateRip вернул [C5EEF20E] (AR v2)
Копирование... OK
Трек 17
Имя файла F:\2001.Carlo Actis Dato - The Moonwalkers\17. Oujda.wav
Пиковый уровень 71.5 %
Скорость извлечения 3.5 X
Качество трека 100.0 %
CRC теста 2B6BAA42
CRC копии 2B6BAA42
Точность не определена (достоверность 2) [6A625E83], AccurateRip вернул [666A6396] (AR v2)
Копирование... OK
Трек 18
Имя файла F:\2001.Carlo Actis Dato - The Moonwalkers\18. Latin Lover.wav
Пиковый уровень 85.6 %
Скорость извлечения 3.0 X
Качество трека 100.0 %
CRC теста 0A9487A8
CRC копии 0A9487A8
Точность не определена (достоверность 2) [B3951AD1], AccurateRip вернул [74CED2E0] (AR v2)
Копирование... OK
Трек 19
Имя файла F:\2001.Carlo Actis Dato - The Moonwalkers\19. Wtches.wav
Пиковый уровень 84.2 %
Скорость извлечения 2.8 X
Качество трека 99.9 %
CRC теста B31AA805
CRC копии B31AA805
Точность не определена (достоверность 2) [962F223D], AccurateRip вернул [A6FA5472] (AR v2)
Копирование... OK
Трек 20
Имя файла F:\2001.Carlo Actis Dato - The Moonwalkers\20. Basta la pasta.wav
Пиковый уровень 55.4 %
Скорость извлечения 2.6 X
Качество трека 100.0 %
CRC теста 2BE5B39B
CRC копии 2BE5B39B
Точность не определена (достоверность 2) [077BE297], AccurateRip вернул [8497400D] (AR v2)
Копирование... OK
Трек 21
Имя файла F:\2001.Carlo Actis Dato - The Moonwalkers\21. Bali.wav
Пиковый уровень 43.0 %
Скорость извлечения 2.5 X
Качество трека 100.0 %
CRC теста E4E498B9
CRC копии E4E498B9
Точность не определена (достоверность 2) [1372009F], AccurateRip вернул [5B09AE76] (AR v2)
Копирование... OK
Трек 22
Имя файла F:\2001.Carlo Actis Dato - The Moonwalkers\22. Mikhail.wav
Пиковый уровень 76.4 %
Скорость извлечения 3.3 X
Качество трека 100.0 %
CRC теста 065D0693
CRC копии 065D0693
Точность не определена (достоверность 2) [2DCCF936], AccurateRip вернул [5DB3C509] (AR v2)
Копирование... OK
Трек 23
Имя файла F:\2001.Carlo Actis Dato - The Moonwalkers\23. Mambo n. 55.wav
Пиковый уровень 78.2 %
Скорость извлечения 3.1 X
Качество трека 100.0 %
CRC теста 6BDDDB9F
CRC копии 6BDDDB9F
Точность не определена (достоверность 2) [0F9DD5A3], AccurateRip вернул [C6C581C5] (AR v2)
Копирование... OK
Трек 24
Имя файла F:\2001.Carlo Actis Dato - The Moonwalkers\24. El Oued.wav
Пиковый уровень 57.0 %
Скорость извлечения 3.3 X
Качество трека 100.0 %
CRC теста 0E1C35E2
CRC копии 0E1C35E2
Точность не определена (достоверность 2) [B35BB0B5], AccurateRip вернул [9259C56D] (AR v2)
Копирование... OK
Трек 25
Имя файла F:\2001.Carlo Actis Dato - The Moonwalkers\25. Gamelan.wav
Пиковый уровень 81.7 %
Скорость извлечения 2.8 X
Качество трека 100.0 %
CRC теста 1DF2ADE6
CRC копии 1DF2ADE6
Точность не определена (достоверность 2) [F8ED65B8], AccurateRip вернул [FAE4D586] (AR v2)
Копирование... OK
Трек 26
Имя файла F:\2001.Carlo Actis Dato - The Moonwalkers\26. Bad Rap 3.wav
Пиковый уровень 87.4 %
Скорость извлечения 1.9 X
Качество трека 100.0 %
CRC теста B36E1E32
CRC копии B36E1E32
Точность не определена (достоверность 2) [4A358C24], AccurateRip вернул [FC6281AC] (AR v2)
Копирование... OK
Трек 27
Имя файла F:\2001.Carlo Actis Dato - The Moonwalkers\27. Arigato (same as 1).wav
Пиковый уровень 57.9 %
Скорость извлечения 0.7 X
Качество трека 100.0 %
CRC теста F871044D
CRC копии F871044D
Трек не обнаружен в базе AccurateRip
Копирование... OK
Трек 28
Имя файла F:\2001.Carlo Actis Dato - The Moonwalkers\28. Bad Rap 1.wav
Пиковый уровень 0.0 %
Скорость извлечения 1.1 X
Качество трека 100.0 %
CRC теста 25FD9ECF
CRC копии 25FD9ECF
Трек не обнаружен в базе AccurateRip
Копирование... OK
Трек 29
Имя файла F:\2001.Carlo Actis Dato - The Moonwalkers\29. Fusi Orari.wav
Пиковый уровень 0.0 %
Скорость извлечения 0.8 X
Качество трека 100.0 %
CRC теста 59B76AA6
CRC копии 59B76AA6
Трек не обнаружен в базе AccurateRip
Копирование... OK
Трек 30
Имя файла F:\2001.Carlo Actis Dato - The Moonwalkers\30. Mali.wav
Пиковый уровень 58.3 %
Скорость извлечения 3.3 X
Качество трека 100.0 %
CRC теста 2733BF8D
CRC копии 2733BF8D
Точность не определена (достоверность 2) [C3E330CF], AccurateRip вернул [65166242] (AR v2)
Копирование... OK
26 трек(и) не удалось проверить на точность
4 трек(и) не содержатся в базе AccurateRip
Ни один трек не прошёл проверки на точность
В вашей базе может быть иной вариант штамповки диска
Ошибок не произошло
Конец отчёта
==== Контрольная сумма отчёта 1FC7985BF974BE47882C79D4152BEDE79511300F4893735244F848F0520FA58C ====
 
Содержание индексной карты (.CUE)
REM GENRE Jazz
REM DATE 2001
REM DISCID B00C851E
REM COMMENT "ExactAudioCopy v1.0b3"
PERFORMER "Carlo Actis Dato"
TITLE "The Moonwalker"
FILE "01. Arigato.wav" WAVE
TRACK 01 AUDIO
TITLE "Arigato"
PERFORMER "Carlo Actis Dato"
INDEX 01 00:00:00
FILE "02. Bad Rap 1.wav" WAVE
TRACK 02 AUDIO
TITLE "Bad Rap 1"
PERFORMER "Carlo Actis Dato"
INDEX 01 00:00:00
FILE "03. Fusi Orari.wav" WAVE
TRACK 03 AUDIO
TITLE "Fusi Orari"
PERFORMER "Carlo Actis Dato"
INDEX 01 00:00:00
FILE "04. Thai children.wav" WAVE
TRACK 04 AUDIO
TITLE "Thai children"
PERFORMER "Carlo Actis Dato"
INDEX 01 00:00:00
FILE "05. Apaches.wav" WAVE
TRACK 05 AUDIO
TITLE "Apaches"
PERFORMER "Carlo Actis Dato"
INDEX 01 00:00:00
FILE "06. Cocodi.wav" WAVE
TRACK 06 AUDIO
TITLE "Cocodi"
PERFORMER "Carlo Actis Dato"
INDEX 01 00:00:00
FILE "07. Sikasso.wav" WAVE
TRACK 07 AUDIO
TITLE "Sikasso"
PERFORMER "Carlo Actis Dato"
INDEX 01 00:00:00
FILE "08. Bloody Christmas.wav" WAVE
TRACK 08 AUDIO
TITLE "Bloody Christmas"
PERFORMER "Carlo Actis Dato"
INDEX 01 00:00:00
FILE "09. Banda Sbandata.wav" WAVE
TRACK 09 AUDIO
TITLE "Banda Sbandata"
PERFORMER "Carlo Actis Dato"
INDEX 01 00:00:00
FILE "10. Kathmandu.wav" WAVE
TRACK 10 AUDIO
TITLE "Kathmandu"
PERFORMER "Carlo Actis Dato"
INDEX 01 00:00:00
FILE "11. Iga.wav" WAVE
TRACK 11 AUDIO
TITLE "Iga"
PERFORMER "Carlo Actis Dato"
INDEX 01 00:00:00
FILE "12. Wonderful World.wav" WAVE
TRACK 12 AUDIO
TITLE "Wonderful World"
PERFORMER "Carlo Actis Dato"
INDEX 01 00:00:00
FILE "13. Marina.wav" WAVE
TRACK 13 AUDIO
TITLE "Marina"
PERFORMER "Carlo Actis Dato"
INDEX 01 00:00:00
FILE "14. Wine & Water.wav" WAVE
TRACK 14 AUDIO
TITLE "Wine & Water"
PERFORMER "Carlo Actis Dato"
INDEX 01 00:00:00
FILE "15. Bad Rap 2.wav" WAVE
TRACK 15 AUDIO
TITLE "Bad Rap 2"
PERFORMER "Carlo Actis Dato"
INDEX 01 00:00:00
FILE "16. Marrakech.wav" WAVE
TRACK 16 AUDIO
TITLE "Marrakech"
PERFORMER "Carlo Actis Dato"
INDEX 01 00:00:00
FILE "17. Oujda.wav" WAVE
TRACK 17 AUDIO
TITLE "Oujda"
PERFORMER "Carlo Actis Dato"
INDEX 01 00:00:00
FILE "18. Latin Lover.wav" WAVE
TRACK 18 AUDIO
TITLE "Latin Lover"
PERFORMER "Carlo Actis Dato"
INDEX 01 00:00:00
FILE "19. Wtches.wav" WAVE
TRACK 19 AUDIO
TITLE "Wtches"
PERFORMER "Carlo Actis Dato"
INDEX 01 00:00:00
FILE "20. Basta la pasta.wav" WAVE
TRACK 20 AUDIO
TITLE "Basta la pasta"
PERFORMER "Carlo Actis Dato"
INDEX 01 00:00:00
FILE "21. Bali.wav" WAVE
TRACK 21 AUDIO
TITLE "Bali"
PERFORMER "Carlo Actis Dato"
INDEX 01 00:00:00
FILE "22. Mikhail.wav" WAVE
TRACK 22 AUDIO
TITLE "Mikhail"
PERFORMER "Carlo Actis Dato"
INDEX 01 00:00:00
FILE "23. Mambo n. 55.wav" WAVE
TRACK 23 AUDIO
TITLE "Mambo n. 55"
PERFORMER "Carlo Actis Dato"
INDEX 01 00:00:00
FILE "24. El Oued.wav" WAVE
TRACK 24 AUDIO
TITLE "El Oued"
PERFORMER "Carlo Actis Dato"
INDEX 01 00:00:00
FILE "25. Gamelan.wav" WAVE
TRACK 25 AUDIO
TITLE "Gamelan"
PERFORMER "Carlo Actis Dato"
INDEX 01 00:00:00
FILE "26. Bad Rap 3.wav" WAVE
TRACK 26 AUDIO
TITLE "Bad Rap 3"
PERFORMER "Carlo Actis Dato"
INDEX 01 00:00:00
FILE "27. Arigato (same as 1).wav" WAVE
TRACK 27 AUDIO
TITLE "Arigato (same as 1)"
PERFORMER "Carlo Actis Dato"
INDEX 01 00:00:00
FILE "28. Bad Rap 1.wav" WAVE
TRACK 28 AUDIO
TITLE "Bad Rap 1"
PERFORMER "Carlo Actis Dato"
INDEX 01 00:00:00
FILE "29. Fusi Orari.wav" WAVE
TRACK 29 AUDIO
TITLE "Fusi Orari"
PERFORMER "Carlo Actis Dato"
INDEX 01 00:00:00
FILE "30. Mali.wav" WAVE
TRACK 30 AUDIO
TITLE "Mali"
PERFORMER "Carlo Actis Dato"
INDEX 01 00:00:00
Any questions -> support@pro-jazz.com. По всем вопросам пишите -> support@pro-jazz.com
21:45
129
Нет комментариев. Ваш будет первым!