Вы используете незарегистрированную версию компонента "Вкладки"!

Поиск

(Avant-Garde Jazz, Exotica, Surf Revival, Tzadik) John Zorn - Music Romance Volume III: The Gift - 2001, FLAC (image+.cue), lossless

(Avant-Garde Jazz, Exotica, Surf Revival, Tzadik) John Zorn - Music Romance Volume III: The Gift - 2001, FLAC (image+.cue), lossless
Треклист:
John Zorn / Music Romance Volume III: The Gift
Жанр: Avant-Garde Jazz, Exotica, Surf Revival
Страна-производитель диска: Россия
Год издания диска: 2001
Издатель (лейбл): Tzadik
Номер по каталогу: TZ 7332
Страна: USA
Аудиокодек: FLAC (*.flac)
Тип рипа: image+.cue
Битрейт аудио: lossless
Продолжительность: 51:29
Источник (релизер): CD
Наличие сканов в содержимом раздачи: да
Треклист:
01. Makahaa
02. The Quiet Surf
03. Samarkan
04. Train to Thiensan
05. Snake Catcher
06. Moonlove
07. Cutting Stone
08. La Flor del Barrio
09. Bridge to the Beyond
10. Makahaa (reprise)
 
Лог создания рипа
Exact Audio Copy V1.0 beta 2 from 29. April 2011
EAC extraction logfile from 7. February 2012, 11:03
John Zorn / The Gift
Used drive : Optiarc DVD RW AD-7240S Adapter: 2 ID: 0
Read mode : Secure
Utilize accurate stream : Yes
Defeat audio cache : Yes
Make use of C2 pointers : No
Read offset correction : 48
Overread into Lead-In and Lead-Out : No
Fill up missing offset samples with silence : Yes
Delete leading and trailing silent blocks : No
Null samples used in CRC calculations : Yes
Used interface : Installed external ASPI interface
Used output format : User Defined Encoder
Selected bitrate : 128 kBit/s
Quality : High
Add ID3 tag : No
Command line compressor : C:\Program Files\Exact Audio Copy\FLAC\FLAC.EXE
Additional command line options : -8 -V -T "ARTIST=%artist%" -T "TITLE=%title%" -T "ALBUM=%albumtitle%" -T "DATE=%year%" -T "TRACKNUMBER=%tracknr%" -T "GENRE=%genre%" -T "COMMENT=%comment%" -T "BAND=%albuminterpret%" -T "COMPOSER=%composer%" %haslyrics%--ta
TOC of the extracted CD
Track | Start | Length | Start sector | End sector
---------------------------------------------------------
1 | 0:00.00 | 5:20.42 | 0 | 24041
2 | 5:20.42 | 3:14.60 | 24042 | 38651
3 | 8:35.27 | 6:41.33 | 38652 | 68759
4 | 15:16.60 | 3:51.47 | 68760 | 86131
5 | 19:08.32 | 6:32.55 | 86132 | 115586
6 | 25:41.12 | 5:19.48 | 115587 | 139559
7 | 31:00.60 | 7:10.25 | 139560 | 171834
8 | 38:11.10 | 3:10.02 | 171835 | 186086
9 | 41:21.12 | 5:33.58 | 186087 | 211119
10 | 46:54.70 | 4:34.39 | 211120 | 231708
Range status and errors
Selected range
Filename C:\John Zorn (2001) - The Gift\John Zorn - The Gift.wav
Peak level 100.0 %
Extraction speed 3.8 X
Range quality 100.0 %
Test CRC 6E47700E
Copy CRC 6E47700E
Copy OK
No errors occurred
AccurateRip summary
Track 1 accurately ripped (confidence 3) [46EF6AF7] (AR v1)
Track 2 accurately ripped (confidence 3) [A381F1E0] (AR v1)
Track 3 accurately ripped (confidence 2) [2B6DB7F9] (AR v1)
Track 4 accurately ripped (confidence 2) [6BDB081F] (AR v1)
Track 5 accurately ripped (confidence 2) [0BF681DA] (AR v1)
Track 6 accurately ripped (confidence 2) [E55D98AE] (AR v1)
Track 7 accurately ripped (confidence 2) [04962459] (AR v1)
Track 8 accurately ripped (confidence 2) [0724A1FC] (AR v1)
Track 9 accurately ripped (confidence 2) [EF4739FF] (AR v1)
Track 10 accurately ripped (confidence 2) [57CFF481] (AR v1)
All tracks accurately ripped
End of status report
==== Log checksum 3346DA6AF1F64263BECB3EC897EAB48D2E817988CB70D49B310A0C7CF1CD773C ====
 
Содержание индексной карты (.CUE)
REM GENRE Jazz
REM DATE 2001
REM DISCID 7F0C110A
REM COMMENT "ExactAudioCopy v1.0b2"
PERFORMER "John Zorn"
TITLE "The Gift"
FILE "John Zorn - The Gift.flac" WAVE
TRACK 01 AUDIO
TITLE "Makahaa"
PERFORMER "John Zorn"
INDEX 01 00:00:00
TRACK 02 AUDIO
TITLE "The Quiet Surf"
PERFORMER "John Zorn"
INDEX 00 05:18:42
INDEX 01 05:20:42
TRACK 03 AUDIO
TITLE "Samarkan"
PERFORMER "John Zorn"
INDEX 01 08:35:27
TRACK 04 AUDIO
TITLE "Train to Thiensan"
PERFORMER "John Zorn"
INDEX 00 15:14:47
INDEX 01 15:16:60
TRACK 05 AUDIO
TITLE "Snake Catcher"
PERFORMER "John Zorn"
INDEX 01 19:08:32
TRACK 06 AUDIO
TITLE "Mao's Moon"
PERFORMER "John Zorn"
INDEX 00 25:38:45
INDEX 01 25:41:12
TRACK 07 AUDIO
TITLE "Cutting Stone"
PERFORMER "John Zorn"
INDEX 00 30:59:00
INDEX 01 31:00:60
TRACK 08 AUDIO
TITLE "La Flor del Barrio"
PERFORMER "John Zorn"
INDEX 00 38:09:37
INDEX 01 38:11:10
TRACK 09 AUDIO
TITLE "Bridge to the Beyond"
PERFORMER "John Zorn"
INDEX 01 41:21:12
TRACK 10 AUDIO
TITLE "Makahaa (reprise)"
PERFORMER "John Zorn"
INDEX 00 46:51:15
INDEX 01 46:54:70
 
Об альбоме (сборнике)
Shattering expectations has been a hallmark of John Zorn's career, but The Gift might surprise even longtime fans. It's basically Zorn's exotica record; a tribute to the sound made popular by the likes of Martin Denny and Les Baxter. A core band of Downtown heavyweights provide you with an easy-listening sound that conjures images of sand and surf, and warm summer nights. Of course, as conductor and arranger, Zorn is ultimately responsible for the sound, but what you hear is primarily the guitar of Marc Ribot, and the keyboards (mostly Wurlitzer and Farfisa) of Jamie Saft. Trevor Dunn, Joey Baron, and Cyro Baptista are the rhythm section, with Ned Rothenberg joining in on shakuhachi on one track, and another augmented by a string section and the trumpet of Dave Douglas. Zorn has been able to draw from an incredible talent pool for many years now, and always knows how to get fabulous performances out of them, no matter what the context. Although the New York scene is notorious for its noisemaking ability, people should stop being surprised at their ability to turn in beautiful, understated performances; and this recording is a prime example. The tunes have a laid-back beach vibe that cries out for cold beverages in the twilight. They succeed perfectly in creating the feel of classic exotica (а la Denny or Baxter), but still maintain their individual identities as players. Towards the end of the recording, the music takes a slightly spooky Morricone-esque turn (on "Bridge to the Beyond," the only track on which Zorn performs, on theremin and piano), but the reprise of "Makahaa" brings you right back to the islands. The Gift shows another more accessible side to John Zorn (see also Bar Kokhba and The Circle Maker). It might be said that he's mellowing with age, but expect the unexpected from Mr. Zorn. Despite the undeniable beauty of the music, underneath the pretty pink wrapping and bows of the outer slipcase, Zorn has included several paintings of young girls in the cover art that some people might find slightly disturbing, as if to underscore the idea that beauty itself is highly subjective. ~ sean westergaard, amg
A beautiful and lyrical exploration of surf, exotica, easy listening and world beat, The Gift is an honest and heartfelt offering to music lovers the world over: an invitation to forget about the worries and cares of the world; to sit back and relax. Featuring Marc Ribot (Postizos), Trevor Dunn (Mr. Bungle), Cyro Baptista (Herbie Hancock), Jamie Saft (Bobby Previte), Joey Baron (Masada) and many special guests, this is the album Naked City fans have been waiting for. A side of John Zorn you’ve rarely heard, the music of The Gift is both relaxing and stimulating, like feeling perfectly at home in a place you’ve never been before. John Zorn "for lovers only." ~ tzadik.com
 
Состав
Marc Ribot - guitar (1-5, 8-10)
Jamie Saft - organ (1, 10), wurlitzer piano (2, 3, 5, 7), piano (6), keyboards (4)
Trevor Dunn - bass (1-5, 8-10)
Cyro Baptista - percussion (1-7, 9, 10)
Joey Baron - drums (3, 4, 6, 8, 10)
with
Ned Rothenberg - shakuhachi (3)
Dave Douglas - trumpet (6)
Jennifer Choi - violin (2, 6)
Masumi Rostad - viola (6)
Raman Ramakrishnan - cello (6)
Greg Cohen - bass (6)
Mike Patton - voice (9)
John Zorn - piano, theremin (6)
Any questions -> support@pro-jazz.com. По всем вопросам пишите -> support@pro-jazz.com
21:46
225
Нет комментариев. Ваш будет первым!