Вы используете незарегистрированную версию компонента "Вкладки"!

Поиск

(Avant-Garde Jazz, Free Improvisation) Brad Dutz & John Holmes - My Bongo - 2003, FLAC (tracks+.cue), lossless

(Avant-Garde Jazz, Free Improvisation) Brad Dutz & John Holmes - My Bongo - 2003, FLAC (tracks+.cue), lossless
Треклист:
Brad Dutz & John Holmes / My Bongo
Жанр: Avant-Garde Jazz, Free Improvisation
Страна-производитель диска: US
Год издания: 2003
Издатель (лейбл): pfMENTUM
Номер по каталогу: CD012
Страна: US
Аудиокодек: FLAC (*.flac)
Тип рипа: tracks+.cue
Битрейт аудио: lossless
Продолжительность: 72:06
Источник (релизер): свой фирменный диск
Наличие сканов в содержимом раздачи: нет
Треклист:
1 We Like Gongs 5:14
2 Ewe Day 3:18
3 Indiana 2:27
4 Peanut Jelly 3:43
5 Caught In The Middle 4:22
6 Klem 5:09
7 Croquets 4:35
8 My Bongo 2:30
9 Tribute To Elvin 6:36
10 B-17 Apricot Seeds 4:04
11 DuoSolos 5:55
12 Pig On Cow 6:39
13 Another One Pumpkin 4:54
14 Is She Mute 3:28
15 Bougarabou 4:53
16 We Still Like Gongs 4:12
 
Лог создания рипа
Exact Audio Copy V1.0 beta 3 from 29. August 2011
EAC extraction logfile from 28. December 2012, 23:30
Brad Dutz & John Holmes / My Bongo
Used drive : PIONEER DVD-RW DVR-115D Adapter: 0 ID: 0
Read mode : Secure
Utilize accurate stream : Yes
Defeat audio cache : Yes
Make use of C2 pointers : No
Read offset correction : 48
Overread into Lead-In and Lead-Out : No
Fill up missing offset samples with silence : Yes
Delete leading and trailing silent blocks : No
Null samples used in CRC calculations : Yes
Used interface : Installed external ASPI interface
Gap handling : Appended to previous track
Used output format : User Defined Encoder
Selected bitrate : 896 kBit/s
Quality : High
Add ID3 tag : No
Command line compressor : C:\Program Files\Exact Audio Copy\FLAC\FLAC.EXE
Additional command line options : -6 -V -T "ARTIST=%artist%" -T "TITLE=%title%" -T "ALBUM=%albumtitle%" -T "DATE=%year%" -T "TRACKNUMBER=%tracknr%" -T "GENRE=%genre%" -T "COMMENT=%comment%" -T "BAND=%albuminterpret%" -T "COMPOSER=%composer%" %haslyrics%--tag-from-file=LYRICS="%lyricsfile%"%haslyrics% -T "DISCNUMBER=%cdnumber%" -T "TOTALDISCS=%totalcds%" -T "TOTALTRACKS=%numtracks%" %hascover%--picture="%coverfile%"%hascover% %source% -o %dest%
TOC of the extracted CD
Track | Start | Length | Start sector | End sector
---------------------------------------------------------
1 | 0:00.00 | 5:14.04 | 0 | 23553
2 | 5:14.04 | 3:18.27 | 23554 | 38430
3 | 8:32.31 | 2:27.53 | 38431 | 49508
4 | 11:00.09 | 3:43.65 | 49509 | 66298
5 | 14:43.74 | 4:22.55 | 66299 | 86003
6 | 19:06.54 | 5:09.01 | 86004 | 109179
7 | 24:15.55 | 4:35.49 | 109180 | 129853
8 | 28:51.29 | 2:30.31 | 129854 | 141134
9 | 31:21.60 | 6:36.42 | 141135 | 170876
10 | 37:58.27 | 4:04.21 | 170877 | 189197
11 | 42:02.48 | 5:55.00 | 189198 | 215822
12 | 47:57.48 | 6:39.28 | 215823 | 245775
13 | 54:37.01 | 4:54.20 | 245776 | 267845
14 | 59:31.21 | 3:28.71 | 267846 | 283516
15 | 63:00.17 | 4:53.29 | 283517 | 305520
16 | 67:53.46 | 4:12.35 | 305521 | 324455
Track 1
Filename D:\zzz\01 - We Like Gongs.wav
Pre-gap length 0:00:02.00
Peak level 96.6 %
Extraction speed 4.4 X
Track quality 99.9 %
Test CRC EFB8DDC7
Copy CRC EFB8DDC7
Track not present in AccurateRip database
Copy OK
Track 2
Filename D:\zzz\02 - Ewe Day.wav
Pre-gap length 0:00:02.00
Peak level 96.6 %
Extraction speed 5.0 X
Track quality 100.0 %
Test CRC D0318AC4
Copy CRC D0318AC4
Track not present in AccurateRip database
Copy OK
Track 3
Filename D:\zzz\03 - Indiana.wav
Pre-gap length 0:00:02.00
Peak level 85.0 %
Extraction speed 4.1 X
Track quality 99.9 %
Test CRC 8935B374
Copy CRC 8935B374
Track not present in AccurateRip database
Copy OK
Track 4
Filename D:\zzz\04 - Peanut Jelly.wav
Pre-gap length 0:00:02.00
Peak level 96.6 %
Extraction speed 5.6 X
Track quality 100.0 %
Test CRC 69E09906
Copy CRC 69E09906
Track not present in AccurateRip database
Copy OK
Track 5
Filename D:\zzz\05 - Caught In The Middle.wav
Pre-gap length 0:00:01.00
Peak level 96.6 %
Extraction speed 4.1 X
Track quality 99.8 %
Test CRC 6404778F
Copy CRC 6404778F
Track not present in AccurateRip database
Copy OK
Track 6
Filename D:\zzz\06 - Klem.wav
Pre-gap length 0:00:02.00
Peak level 57.5 %
Extraction speed 6.5 X
Track quality 100.0 %
Test CRC 002B0FED
Copy CRC 002B0FED
Track not present in AccurateRip database
Copy OK
Track 7
Filename D:\zzz\07 - Croquets.wav
Pre-gap length 0:00:02.00
Peak level 87.2 %
Extraction speed 6.8 X
Track quality 100.0 %
Test CRC 31A0CC66
Copy CRC 31A0CC66
Track not present in AccurateRip database
Copy OK
Track 8
Filename D:\zzz\08 - My Bongo.wav
Pre-gap length 0:00:02.00
Peak level 67.0 %
Extraction speed 5.4 X
Track quality 99.9 %
Test CRC DBF535EE
Copy CRC DBF535EE
Track not present in AccurateRip database
Copy OK
Track 9
Filename D:\zzz\09 - Tribute To Elvin.wav
Pre-gap length 0:00:02.00
Peak level 96.6 %
Extraction speed 7.5 X
Track quality 100.0 %
Test CRC C5D93C18
Copy CRC C5D93C18
Track not present in AccurateRip database
Copy OK
Track 10
Filename D:\zzz\10 - B-17 Apricot Seeds.wav
Pre-gap length 0:00:02.00
Peak level 96.6 %
Extraction speed 7.5 X
Track quality 100.0 %
Test CRC E1335CDE
Copy CRC E1335CDE
Track not present in AccurateRip database
Copy OK
Track 11
Filename D:\zzz\11 - DuoSolos.wav
Pre-gap length 0:00:02.00
Peak level 96.6 %
Extraction speed 8.1 X
Track quality 100.0 %
Test CRC A710EE84
Copy CRC A710EE84
Track not present in AccurateRip database
Copy OK
Track 12
Filename D:\zzz\12 - Pig On Cow.wav
Pre-gap length 0:00:02.00
Peak level 96.6 %
Extraction speed 7.9 X
Track quality 99.9 %
Test CRC 5661FF52
Copy CRC 5661FF52
Track not present in AccurateRip database
Copy OK
Track 13
Filename D:\zzz\13 - Another One Pumpkin.wav
Pre-gap length 0:00:02.00
Peak level 96.6 %
Extraction speed 8.5 X
Track quality 100.0 %
Test CRC 1F997144
Copy CRC 1F997144
Track not present in AccurateRip database
Copy OK
Track 14
Filename D:\zzz\14 - Is She Mute.wav
Pre-gap length 0:00:02.00
Peak level 96.6 %
Extraction speed 8.4 X
Track quality 100.0 %
Test CRC 86ED8DD1
Copy CRC 86ED8DD1
Track not present in AccurateRip database
Copy OK
Track 15
Filename D:\zzz\15 - Bougarabou.wav
Pre-gap length 0:00:02.00
Peak level 96.6 %
Extraction speed 9.0 X
Track quality 100.0 %
Test CRC 030BDDF6
Copy CRC 030BDDF6
Track not present in AccurateRip database
Copy OK
Track 16
Filename D:\zzz\16 - We Still Like Gongs.wav
Pre-gap length 0:00:02.00
Peak level 96.6 %
Extraction speed 9.0 X
Track quality 100.0 %
Test CRC 0D2CAAF9
Copy CRC 0D2CAAF9
Track not present in AccurateRip database
Copy OK
None of the tracks are present in the AccurateRip database
No errors occurred
End of status report
==== Log checksum 345411FC5028E4C0D910E0C9F6EDA12A73636A48AA302AB4C2AD0589E83ED0CC ====
 
Содержание индексной карты (.CUE)
REM GENRE Avantgarde
REM DATE 2003
REM DISCID F810E610
REM COMMENT "ExactAudioCopy v1.0b3"
PERFORMER "Brad Dutz & John Holmes"
TITLE "My Bongo"
FILE "01 - We Like Gongs.wav" WAVE
TRACK 01 AUDIO
TITLE "We Like Gongs"
PERFORMER "Brad Dutz & John Holmes"
INDEX 01 00:00:00
TRACK 02 AUDIO
TITLE "Ewe Day"
PERFORMER "Brad Dutz & John Holmes"
INDEX 00 05:12:04
FILE "02 - Ewe Day.wav" WAVE
INDEX 01 00:00:00
TRACK 03 AUDIO
TITLE "Indiana"
PERFORMER "Brad Dutz & John Holmes"
INDEX 00 03:16:27
FILE "03 - Indiana.wav" WAVE
INDEX 01 00:00:00
TRACK 04 AUDIO
TITLE "Peanut Jelly"
PERFORMER "Brad Dutz & John Holmes"
INDEX 00 02:25:53
FILE "04 - Peanut Jelly.wav" WAVE
INDEX 01 00:00:00
TRACK 05 AUDIO
TITLE "Caught In The Middle"
PERFORMER "Brad Dutz & John Holmes"
INDEX 00 03:42:65
FILE "05 - Caught In The Middle.wav" WAVE
INDEX 01 00:00:00
TRACK 06 AUDIO
TITLE "Klem"
PERFORMER "Brad Dutz & John Holmes"
INDEX 00 04:20:55
FILE "06 - Klem.wav" WAVE
INDEX 01 00:00:00
TRACK 07 AUDIO
TITLE "Croquets"
PERFORMER "Brad Dutz & John Holmes"
INDEX 00 05:07:01
FILE "07 - Croquets.wav" WAVE
INDEX 01 00:00:00
TRACK 08 AUDIO
TITLE "My Bongo"
PERFORMER "Brad Dutz & John Holmes"
INDEX 00 04:33:49
FILE "08 - My Bongo.wav" WAVE
INDEX 01 00:00:00
TRACK 09 AUDIO
TITLE "Tribute To Elvin"
PERFORMER "Brad Dutz & John Holmes"
INDEX 00 02:28:31
FILE "09 - Tribute To Elvin.wav" WAVE
INDEX 01 00:00:00
TRACK 10 AUDIO
TITLE "B-17 Apricot Seeds"
PERFORMER "Brad Dutz & John Holmes"
INDEX 00 06:34:42
FILE "10 - B-17 Apricot Seeds.wav" WAVE
INDEX 01 00:00:00
TRACK 11 AUDIO
TITLE "DuoSolos"
PERFORMER "Brad Dutz & John Holmes"
INDEX 00 04:02:21
FILE "11 - DuoSolos.wav" WAVE
INDEX 01 00:00:00
TRACK 12 AUDIO
TITLE "Pig On Cow"
PERFORMER "Brad Dutz & John Holmes"
INDEX 00 05:53:00
FILE "12 - Pig On Cow.wav" WAVE
INDEX 01 00:00:00
TRACK 13 AUDIO
TITLE "Another One Pumpkin"
PERFORMER "Brad Dutz & John Holmes"
INDEX 00 06:37:28
FILE "13 - Another One Pumpkin.wav" WAVE
INDEX 01 00:00:00
TRACK 14 AUDIO
TITLE "Is She Mute"
PERFORMER "Brad Dutz & John Holmes"
INDEX 00 04:52:20
FILE "14 - Is She Mute.wav" WAVE
INDEX 01 00:00:00
TRACK 15 AUDIO
TITLE "Bougarabou"
PERFORMER "Brad Dutz & John Holmes"
INDEX 00 03:26:71
FILE "15 - Bougarabou.wav" WAVE
INDEX 01 00:00:00
TRACK 16 AUDIO
TITLE "We Still Like Gongs"
PERFORMER "Brad Dutz & John Holmes"
INDEX 00 04:51:29
FILE "16 - We Still Like Gongs.wav" WAVE
INDEX 01 00:00:00
 
Лог проверки качества
d:\>d:\aucdtect -d/-m0 d:\zzz\*.wav
auCDtect: CD records authenticity detector, version 0.8.2
Copyright (c) 2004 Oleg Berngardt. All rights reserved.
Copyright (c) 2004 Alexander Djourik. All rights reserved.
------------------------------------------------------------
Processing file: [01. We Like Gongs.wav]
------------------------------------------------------------
This track looks like CDDA with probability 100%
------------------------------------------------------------
Processing file: [02. Ewe Day.wav]
------------------------------------------------------------
This track looks like CDDA with probability 100%
------------------------------------------------------------
Processing file: [03. Indiana.wav]
------------------------------------------------------------
This track looks like CDDA with probability 100%
------------------------------------------------------------
Processing file: [04. Peanut Jelly.wav]
------------------------------------------------------------
This track looks like CDDA with probability 100%
------------------------------------------------------------
Processing file: [05. Caught In The Middle.wav]
------------------------------------------------------------
This track looks like CDDA with probability 100%
------------------------------------------------------------
Processing file: [06. Klem.wav]
------------------------------------------------------------
This track looks like CDDA with probability 100%
------------------------------------------------------------
Processing file: [07. Croquets.wav]
------------------------------------------------------------
This track looks like CDDA with probability 100%
------------------------------------------------------------
Processing file: [08. My Bongo.wav]
------------------------------------------------------------
This track looks like CDDA with probability 100%
------------------------------------------------------------
Processing file: [09. Tribute To Elvin.wav]
------------------------------------------------------------
This track looks like CDDA with probability 100%
------------------------------------------------------------
Processing file: [10. B-17 Apricot Seeds.wav]
------------------------------------------------------------
This track looks like CDDA with probability 100%
------------------------------------------------------------
Processing file: [11. DuoSolos.wav]
------------------------------------------------------------
This track looks like CDDA with probability 100%
------------------------------------------------------------
Processing file: [12. Pig On Cow.wav]
------------------------------------------------------------
This track looks like CDDA with probability 100%
------------------------------------------------------------
Processing file: [13. Another One Pumpkin.wav]
------------------------------------------------------------
This track looks like CDDA with probability 100%
------------------------------------------------------------
Processing file: [14. Is She Mute.wav]
------------------------------------------------------------
This track looks like CDDA with probability 100%
------------------------------------------------------------
Processing file: [15. Bougarabou.wav]
------------------------------------------------------------
This track looks like CDDA with probability 100%
------------------------------------------------------------
Processing file: [16. We Still Like Gongs.wav]
------------------------------------------------------------
This track looks like CDDA with probability 86%
------------------------------------------------------------
Final Conclusion:
------------------------------------------------------------
These tracks looks like CDDA with probability 100%
Доп. информация:
 
Jazzweekly.com Review
"For every player who can pull off an album of percussion alone (for instance, Fritz Hauser, Gerry Hemingway, or Glen Velez), there are numerous others who, despite being fine players in traditional groups, are bombastic, self-indulgent, or, worst of all, boring when it comes down to just percussion. Drawing on a number of musical traditions including jazz, African, and classical music, Brad Dutz has enlivened the groups of such heavy improvisers as Vinny Golia and Michael Vlatkovich, but how does he fare when paired with only fellow percussionist John Holmes? Quite well, actually.
The two men wisely bring a huge number of instruments into play here, ensuring that the palette remains varied in a potentially static context. This includes some familiar instruments (drumset, bongos, tabla, etc.) as well as vibes, marimba, steel drums, and an encyclopedic range of gongs and cymbals.
The music is similarly diverse, ranging from African-sounding pieces to jazz tributes to ambient music made of sustained cymbal sounds. Contrary to what some might expect from two drummers, countable rhythms are absent on some tracks, particularly early in the album, and these tend to be less immediately interesting. Careful attention is rewarded by the precise interplay of metal discs and cupchimes on "Klem" or the atmospheric "Indiana" (not the jazz standard), but if listened to as background music these tracks will sound like semi-random clatter.
Things pick up for the album's second half with "Tribute to Elvin." Rather than imitating the man?s ferocious energy, Dutz and Holmes construct a minimal jazz waltz out of delicate cymbal work and expertly placed conga accents. It?s an intelligent and surprisingly fitting homage to a man who revolutionized jazz percussion.
A vibes-drums duet, "B-17 Apricot Seeds" will in some ways be the most conventional piece for free jazz listeners. Building from an abstract theme, the written and the improvised are virtually inseparable. Unpredictable both melodically and rhythmically, it nevertheless hints strongly at contemporary classical music and some of the AACM's work.
Evocative grooves characterize the later tracks, arguably the strongest on the album, and one wishes that a few of these more accessible tracks had been placed at the beginning of the album. These continually inventive pieces, particularly the propulsive "Pig On Cow" or the exquisite glass marimba-drums duet "Is She Mute," are almost enough to quell any misgivings I had about the album's first half.
Not quite intense enough to be consistently compelling, "My Bongo" should at least be heard by any percussionist. The beautiful second half makes up for an interesting but slightly flawed first. For the average listener, it is a quiet album that demands and rewards a few patient listens."
 
Состав
Percussion – Brad Dutz, John Holmes
Any questions -> support@pro-jazz.com. По всем вопросам пишите -> support@pro-jazz.com
07:03
180
Нет комментариев. Ваш будет первым!