Вы используете незарегистрированную версию компонента "Вкладки"!

Поиск

(Avant-Garde Jazz, Free Improvisation) Brad Dutz & Jeff Kaiser - The Order Of Her Bones - 2002, FLAC (tracks+.cue), lossless

(Avant-Garde Jazz, Free Improvisation) Brad Dutz & Jeff Kaiser - The Order Of Her Bones - 2002, FLAC (tracks+.cue), lossless
Треклист:
Brad Dutz & Jeff Kaiser / The Order Of Her Bones
Жанр: Avant-Garde Jazz, Free Improvisation
Страна-производитель диска: US
Год издания: 2002
Издатель (лейбл): pfMENTUM
Номер по каталогу: CD008
Страна: US
Аудиокодек: FLAC (*.flac)
Тип рипа: tracks+.cue
Битрейт аудио: lossless
Продолжительность: 60:50
Источник (релизер): свой фирменный диск
Наличие сканов в содержимом раздачи: нет
Треклист:
1 The White Haired Gentleman Approaches 6:41
2 Magnification Embrace 5:50
3 The Scrupulous Hand Of Childhood 6:18
4 Wounds And Contusions 3:18
5 The Vigilant Conspiracy 5:28
6 The Order Of Her Bones 1:48
7 Stories, Rumors 6:58
8 Finches And Wrens 5:42
9 It Becomes Translucent 5:32
10 Bring Me Some Eggs 3:16
11 No Coffee? Nothing? 4:56
12 Faintly Appearing 5:02
 
Лог создания рипа
Exact Audio Copy V1.0 beta 3 from 29. August 2011
EAC extraction logfile from 28. December 2012, 21:15
Brad Dutz & Jeff Kaiser / The Order Of Her Bones
Used drive : PIONEER DVD-RW DVR-115D Adapter: 0 ID: 0
Read mode : Secure
Utilize accurate stream : Yes
Defeat audio cache : Yes
Make use of C2 pointers : No
Read offset correction : 48
Overread into Lead-In and Lead-Out : No
Fill up missing offset samples with silence : Yes
Delete leading and trailing silent blocks : No
Null samples used in CRC calculations : Yes
Used interface : Installed external ASPI interface
Gap handling : Appended to previous track
Used output format : User Defined Encoder
Selected bitrate : 896 kBit/s
Quality : High
Add ID3 tag : No
Command line compressor : C:\Program Files\Exact Audio Copy\FLAC\FLAC.EXE
Additional command line options : -6 -V -T "ARTIST=%artist%" -T "TITLE=%title%" -T "ALBUM=%albumtitle%" -T "DATE=%year%" -T "TRACKNUMBER=%tracknr%" -T "GENRE=%genre%" -T "COMMENT=%comment%" -T "BAND=%albuminterpret%" -T "COMPOSER=%composer%" %haslyrics%--tag-from-file=LYRICS="%lyricsfile%"%haslyrics% -T "DISCNUMBER=%cdnumber%" -T "TOTALDISCS=%totalcds%" -T "TOTALTRACKS=%numtracks%" %hascover%--picture="%coverfile%"%hascover% %source% -o %dest%
TOC of the extracted CD
Track | Start | Length | Start sector | End sector
---------------------------------------------------------
1 | 0:00.00 | 6:41.37 | 0 | 30111
2 | 6:41.37 | 5:50.00 | 30112 | 56361
3 | 12:31.37 | 6:18.00 | 56362 | 84711
4 | 18:49.37 | 3:18.38 | 84712 | 99599
5 | 22:08.00 | 5:28.00 | 99600 | 124199
6 | 27:36.00 | 1:48.00 | 124200 | 132299
7 | 29:24.00 | 6:58.00 | 132300 | 163649
8 | 36:22.00 | 5:42.00 | 163650 | 189299
9 | 42:04.00 | 5:32.00 | 189300 | 214199
10 | 47:36.00 | 3:16.00 | 214200 | 228899
11 | 50:52.00 | 4:56.00 | 228900 | 251099
12 | 55:48.00 | 5:02.15 | 251100 | 273764
Track 1
Filename D:\zzz\01 - The White Haired Gentleman Approaches.wav
Pre-gap length 0:00:02.00
Peak level 96.9 %
Extraction speed 4.6 X
Track quality 100.0 %
Test CRC 6E7636A4
Copy CRC 6E7636A4
Track not present in AccurateRip database
Copy OK
Track 2
Filename D:\zzz\02 - Magnification Embrace.wav
Pre-gap length 0:00:04.05
Peak level 83.3 %
Extraction speed 5.3 X
Track quality 100.0 %
Test CRC 3E67A3C4
Copy CRC 3E67A3C4
Track not present in AccurateRip database
Copy OK
Track 3
Filename D:\zzz\03 - The Scrupulous Hand Of Childhood.wav
Pre-gap length 0:00:04.05
Peak level 80.7 %
Extraction speed 5.9 X
Track quality 100.0 %
Test CRC 6C32565B
Copy CRC 6C32565B
Track not present in AccurateRip database
Copy OK
Track 4
Filename D:\zzz\04 - Wounds And Contusions.wav
Pre-gap length 0:00:04.05
Peak level 97.7 %
Extraction speed 5.1 X
Track quality 99.9 %
Test CRC 2DB47DEC
Copy CRC 2DB47DEC
Track not present in AccurateRip database
Copy OK
Track 5
Filename D:\zzz\05 - The Vigilant Conspiracy.wav
Pre-gap length 0:00:04.05
Peak level 97.7 %
Extraction speed 5.9 X
Track quality 99.9 %
Test CRC 30B67BAB
Copy CRC 30B67BAB
Track not present in AccurateRip database
Copy OK
Track 6
Filename D:\zzz\06 - The Order Of Her Bones.wav
Pre-gap length 0:00:05.06
Peak level 72.5 %
Extraction speed 5.6 X
Track quality 100.0 %
Test CRC 8D0708E8
Copy CRC 8D0708E8
Track not present in AccurateRip database
Copy OK
Track 7
Filename D:\zzz\07 - Stories, Rumors....wav
Pre-gap length 0:00:03.04
Peak level 97.7 %
Extraction speed 6.7 X
Track quality 99.9 %
Test CRC 2A758CE8
Copy CRC 2A758CE8
Track not present in AccurateRip database
Copy OK
Track 8
Filename D:\zzz\08 - Finches And Wrens.wav
Pre-gap length 0:00:04.05
Peak level 97.7 %
Extraction speed 7.4 X
Track quality 100.0 %
Test CRC 191DA619
Copy CRC 191DA619
Track not present in AccurateRip database
Copy OK
Track 9
Filename D:\zzz\09 - It Becomes Translucent.wav
Pre-gap length 0:00:02.03
Peak level 97.7 %
Extraction speed 7.1 X
Track quality 99.9 %
Test CRC 8D5255A5
Copy CRC 8D5255A5
Track not present in AccurateRip database
Copy OK
Track 10
Filename D:\zzz\10 - Bring Me Some Eggs.wav
Pre-gap length 0:00:05.06
Peak level 97.7 %
Extraction speed 7.4 X
Track quality 100.0 %
Test CRC B724B7ED
Copy CRC B724B7ED
Track not present in AccurateRip database
Copy OK
Track 11
Filename D:\zzz\11 - No Coffee Nothing.wav
Pre-gap length 0:00:02.03
Peak level 63.8 %
Extraction speed 8.1 X
Track quality 100.0 %
Test CRC 44420E69
Copy CRC 44420E69
Track not present in AccurateRip database
Copy OK
Track 12
Filename D:\zzz\12 - Faintly Appearing.wav
Pre-gap length 0:00:05.06
Peak level 95.5 %
Extraction speed 8.3 X
Track quality 100.0 %
Test CRC 04C0790B
Copy CRC 04C0790B
Track not present in AccurateRip database
Copy OK
None of the tracks are present in the AccurateRip database
No errors occurred
End of status report
==== Log checksum AEB7AC37D5C4C61511344C3C54B23D1A36894ED3A7430C410BA755265D164330 ====
 
Содержание индексной карты (.CUE)
REM GENRE Avantgarde
REM DATE 2002
REM DISCID 990E420C
REM COMMENT "ExactAudioCopy v1.0b3"
PERFORMER "Brad Dutz & Jeff Kaiser"
TITLE "The Order Of Her Bones"
FILE "01 - The White Haired Gentleman Approaches.wav" WAVE
TRACK 01 AUDIO
TITLE "The White Haired Gentleman Approaches"
PERFORMER "Brad Dutz & Jeff Kaiser"
INDEX 01 00:00:00
TRACK 02 AUDIO
TITLE "Magnification Embrace"
PERFORMER "Brad Dutz & Jeff Kaiser"
INDEX 00 06:37:32
FILE "02 - Magnification Embrace.wav" WAVE
INDEX 01 00:00:00
TRACK 03 AUDIO
TITLE "The Scrupulous Hand Of Childhood"
PERFORMER "Brad Dutz & Jeff Kaiser"
INDEX 00 05:45:70
FILE "03 - The Scrupulous Hand Of Childhood.wav" WAVE
INDEX 01 00:00:00
TRACK 04 AUDIO
TITLE "Wounds And Contusions"
PERFORMER "Brad Dutz & Jeff Kaiser"
INDEX 00 06:13:70
FILE "04 - Wounds And Contusions.wav" WAVE
INDEX 01 00:00:00
TRACK 05 AUDIO
TITLE "The Vigilant Conspiracy"
PERFORMER "Brad Dutz & Jeff Kaiser"
INDEX 00 03:14:33
FILE "05 - The Vigilant Conspiracy.wav" WAVE
INDEX 01 00:00:00
TRACK 06 AUDIO
TITLE "The Order Of Her Bones"
PERFORMER "Brad Dutz & Jeff Kaiser"
INDEX 00 05:22:69
FILE "06 - The Order Of Her Bones.wav" WAVE
INDEX 01 00:00:00
TRACK 07 AUDIO
TITLE "Stories, Rumors..."
PERFORMER "Brad Dutz & Jeff Kaiser"
INDEX 00 01:44:71
FILE "07 - Stories, Rumors....wav" WAVE
INDEX 01 00:00:00
TRACK 08 AUDIO
TITLE "Finches And Wrens"
PERFORMER "Brad Dutz & Jeff Kaiser"
INDEX 00 06:53:70
FILE "08 - Finches And Wrens.wav" WAVE
INDEX 01 00:00:00
TRACK 09 AUDIO
TITLE "It Becomes Translucent"
PERFORMER "Brad Dutz & Jeff Kaiser"
INDEX 00 05:39:72
FILE "09 - It Becomes Translucent.wav" WAVE
INDEX 01 00:00:00
TRACK 10 AUDIO
TITLE "Bring Me Some Eggs"
PERFORMER "Brad Dutz & Jeff Kaiser"
INDEX 00 05:26:69
FILE "10 - Bring Me Some Eggs.wav" WAVE
INDEX 01 00:00:00
TRACK 11 AUDIO
TITLE "No Coffee? Nothing?"
PERFORMER "Brad Dutz & Jeff Kaiser"
INDEX 00 03:13:72
FILE "11 - No Coffee Nothing.wav" WAVE
INDEX 01 00:00:00
TRACK 12 AUDIO
TITLE "Faintly Appearing"
PERFORMER "Brad Dutz & Jeff Kaiser"
INDEX 00 04:50:69
FILE "12 - Faintly Appearing.wav" WAVE
INDEX 01 00:00:00
 
Лог проверки качества
d:\>d:\aucdtect -d/-m0 d:\zzz\*.wav
auCDtect: CD records authenticity detector, version 0.8.2
Copyright (c) 2004 Oleg Berngardt. All rights reserved.
Copyright (c) 2004 Alexander Djourik. All rights reserved.
------------------------------------------------------------
Processing file: [01. The White Haired Gentleman Approaches.wav]
------------------------------------------------------------
This track looks like CDDA with probability 100%
------------------------------------------------------------
Processing file: [02. Magnification Embrace.wav]
------------------------------------------------------------
This track looks like CDDA with probability 100%
------------------------------------------------------------
Processing file: [03. The Scrupulous Hand Of Childhood.wav]
------------------------------------------------------------
This track looks like CDDA with probability 100%
------------------------------------------------------------
Processing file: [04. Wounds And Contusions.wav]
------------------------------------------------------------
This track looks like CDDA with probability 100%
------------------------------------------------------------
Processing file: [05. The Vigilant Conspiracy.wav]
------------------------------------------------------------
This track looks like CDDA with probability 100%
------------------------------------------------------------
Processing file: [06. The Order Of Her Bones.wav]
------------------------------------------------------------
This track looks like CDDA with probability 100%
------------------------------------------------------------
Processing file: [07. Stories, Rumors....wav]
------------------------------------------------------------
This track looks like CDDA with probability 100%
------------------------------------------------------------
Processing file: [08. Finches And Wrens.wav]
------------------------------------------------------------
This track looks like CDDA with probability 100%
------------------------------------------------------------
Processing file: [09. It Becomes Translucent.wav]
------------------------------------------------------------
This track looks like CDDA with probability 100%
------------------------------------------------------------
Processing file: [10. Bring Me Some Eggs.wav]
------------------------------------------------------------
This track looks like CDDA with probability 100%
------------------------------------------------------------
Processing file: [11. No Coffee Nothing.wav]
------------------------------------------------------------
This track looks like CDDA with probability 100%
------------------------------------------------------------
Processing file: [12. Faintly Appearing.wav]
------------------------------------------------------------
This track looks like CDDA with probability 87%
------------------------------------------------------------
Final Conclusion:
------------------------------------------------------------
These tracks looks like CDDA with probability 100%
Доп. информация:
 
AMG Review
The duo of brass virtuoso Jeff Kaiser and percussion master Brad Dutz is a pair that seems unlikely on paper given the investigative nature of the music found on The Order of Her Bones. But it is an illusion presented by how tightly wound in the improvisational world these musicians are. Over the course of 12 compositions, Dutz and Kaiser attempt to give sonic expression to themes from T.S. Eliot's landmark poetic work, Four Quartets. Small, streamlined phrases are articulated through the force of a line in the poems, and then moved into the center of the exploration to be considered by trumpet, flugelhorn, and any five or ten of literally 100 percussion instruments. And, unlike a free-rambling meditation on emotional transference or imagery, this pair concentrates on the "song" element in these poems, the music in their chosen section or phrase. Each improvisational element, each exchange, each flurry of notes and beats dovetails from the last into the next. These sections move toward one another even as one musician brings both challenger and consolation to the other. The individual sections mean nothing without the whole and that's how this work was conceived, and as such, it is full of shadow, balance, nuance, and tonally brilliant communication and articulation. This is a gem; seek it out from http://wwwpfmentum.com.
 
Состав
Design, Layout, Mastered By, Trumpet, Flugelhorn, Voice – Jeff Kaiser
Recorded By, Marimba, [Marimba Glass], Vibraphone, Xylophone, Gong [Nipple Gongs, Wind Gong], Percussion [Bell Plate, Heavy Bell, Indian Bells, Bell Chimes, Sea Urchin Chimes, Obsidian Chimes, Cup Chime, Crotales, Rotosound, Bird Whistles, Brazilian Birdcalls, Clay Jay Call, Rawcliffe Clay Bowls And Tuba Flute, Rainstick, Hadjira, Concertina, Ratchet, Shakers, Caxixi, Bones, Pods, Balloon Whistle, Pandiero, Riq, Bougarabou, Spinner, Finger Cymbals, Cymbals, Bongos, Cajon, String Cajon], Drums [Frame Drum, Snare Drum, Bass Drum, Bass Slit Drum], Voice – Brad Dutz
Any questions -> support@pro-jazz.com. По всем вопросам пишите -> support@pro-jazz.com
07:02
152
Нет комментариев. Ваш будет первым!