Поиск

(Avant-Garde Jazz, Electroacoustic, pfMENTUM) [CD] Jeff Kaiser & Tom McNalley - Zugzwang - 2006, FLAC (tracks+.cue), lossless

(Avant-Garde Jazz, Electroacoustic, pfMENTUM) [CD] Jeff Kaiser & Tom McNalley - Zugzwang - 2006, FLAC (tracks+.cue), lossless
Jeff Kaiser & Tom McNalley / Zugzwang
Жанр: Avant-Garde Jazz, Electroacoustic, pfMENTUM
Носитель: CD
Страна-производитель диска: US
Год издания: 2006
Издатель (лейбл): pfMENTUM
Номер по каталогу: CD038
Страна: US
Аудиокодек: FLAC (*.flac)
Тип рипа: tracks+.cue
Битрейт аудио: lossless
Продолжительность: 72:45
Источник (релизер): свой фирменный диск
Наличие сканов в содержимом раздачи:
Треклист:
1. Carbon Fianchetto 12:44
2. Opening Demand 7:28
3. Systematic Imbalance 7:30
4. Both Varied Situations 7:54
5. Organic Symmetry 4:16
6. Abbreviated Structure 4:08
7. Luft Swapping 4:50
8. Zwischenzug 1:36
9. Aristotelian Blockade 11:14
10. Liquid Compensation 11:00
 
Лог создания рипа
Exact Audio Copy V1.0 beta 3 from 29. August 2011
EAC extraction logfile from 11. January 2014, 13:16
Jeff Kaiser & Tom McNalley / Zugzwang
Used drive : PIONEER DVD-RW DVR-115D Adapter: 0 ID: 0
Read mode : Secure
Utilize accurate stream : Yes
Defeat audio cache : Yes
Make use of C2 pointers : No
Read offset correction : 48
Overread into Lead-In and Lead-Out : No
Fill up missing offset samples with silence : Yes
Delete leading and trailing silent blocks : No
Null samples used in CRC calculations : Yes
Used interface : Installed external ASPI interface
Gap handling : Appended to previous track
Used output format : User Defined Encoder
Selected bitrate : 896 kBit/s
Quality : High
Add ID3 tag : No
Command line compressor : C:\Program Files\Exact Audio Copy\FLAC\FLAC.EXE
Additional command line options : -6 -V -T "ARTIST=%artist%" -T "TITLE=%title%" -T "ALBUM=%albumtitle%" -T "DATE=%year%" -T "TRACKNUMBER=%tracknr%" -T "GENRE=%genre%" -T "COMMENT=%comment%" -T "BAND=%albuminterpret%" -T "COMPOSER=%composer%" %haslyrics%--tag-from-file=LYRICS="%lyricsfile%"%haslyrics% -T "DISCNUMBER=%cdnumber%" -T "TOTALDISCS=%totalcds%" -T "TOTALTRACKS=%numtracks%" %hascover%--picture="%coverfile%"%hascover% %source% -o %dest%
TOC of the extracted CD
Track | Start | Length | Start sector | End sector
---------------------------------------------------------
1 | 0:00.00 | 12:44.40 | 0 | 57339
2 | 12:44.40 | 7:28.40 | 57340 | 90979
3 | 20:13.05 | 7:30.40 | 90980 | 124769
4 | 27:43.45 | 7:54.40 | 124770 | 160359
5 | 35:38.10 | 4:16.40 | 160360 | 179599
6 | 39:54.50 | 4:08.40 | 179600 | 198239
7 | 44:03.15 | 4:50.40 | 198240 | 220029
8 | 48:53.55 | 1:36.40 | 220030 | 227269
9 | 50:30.20 | 11:14.40 | 227270 | 277859
10 | 61:44.60 | 11:00.40 | 277860 | 327399
Track 1
Filename D:\zzz\01 - Carbon Fianchetto.wav
Pre-gap length 0:00:02.00
Peak level 96.6 %
Extraction speed 5.6 X
Track quality 100.0 %
Test CRC 8B4D8A2E
Copy CRC 8B4D8A2E
Track not present in AccurateRip database
Copy OK
Track 2
Filename D:\zzz\02 - Opening Demand.wav
Pre-gap length 0:00:02.00
Peak level 96.6 %
Extraction speed 6.0 X
Track quality 99.9 %
Test CRC 1B260535
Copy CRC 1B260535
Track not present in AccurateRip database
Copy OK
Track 3
Filename D:\zzz\03 - Systematic Imbalance.wav
Pre-gap length 0:00:02.00
Peak level 96.6 %
Extraction speed 6.6 X
Track quality 99.9 %
Test CRC FFA594A9
Copy CRC FFA594A9
Track not present in AccurateRip database
Copy OK
Track 4
Filename D:\zzz\04 - Both Varied Situations.wav
Pre-gap length 0:00:02.00
Peak level 96.6 %
Extraction speed 7.6 X
Track quality 100.0 %
Test CRC 52A7DBEC
Copy CRC 52A7DBEC
Track not present in AccurateRip database
Copy OK
Track 5
Filename D:\zzz\05 - Organic Symmetry.wav
Pre-gap length 0:00:02.00
Peak level 96.6 %
Extraction speed 7.5 X
Track quality 100.0 %
Test CRC DE338993
Copy CRC DE338993
Track not present in AccurateRip database
Copy OK
Track 6
Filename D:\zzz\06 - Abbreviated Structure.wav
Pre-gap length 0:00:02.00
Peak level 96.6 %
Extraction speed 7.7 X
Track quality 100.0 %
Test CRC DED6AC45
Copy CRC DED6AC45
Track not present in AccurateRip database
Copy OK
Track 7
Filename D:\zzz\07 - Luft Swapping.wav
Pre-gap length 0:00:02.00
Peak level 96.6 %
Extraction speed 8.0 X
Track quality 100.0 %
Test CRC 25851DE3
Copy CRC 25851DE3
Track not present in AccurateRip database
Copy OK
Track 8
Filename D:\zzz\08 - Zwischenzug.wav
Pre-gap length 0:00:02.00
Peak level 96.6 %
Extraction speed 6.7 X
Track quality 100.0 %
Test CRC CDBD6BAE
Copy CRC CDBD6BAE
Track not present in AccurateRip database
Copy OK
Track 9
Filename D:\zzz\09 - Aristotelian Blockade.wav
Pre-gap length 0:00:02.00
Peak level 96.6 %
Extraction speed 9.1 X
Track quality 100.0 %
Test CRC 3E25F3F0
Copy CRC 3E25F3F0
Track not present in AccurateRip database
Copy OK
Track 10
Filename D:\zzz\10 - Liquid Compensation.wav
Pre-gap length 0:00:02.00
Peak level 96.6 %
Extraction speed 9.7 X
Track quality 100.0 %
Test CRC D5031BD3
Copy CRC D5031BD3
Track not present in AccurateRip database
Copy OK
None of the tracks are present in the AccurateRip database
No errors occurred
End of status report
==== Log checksum 1B1483F51A313E6D2F6DC096BC581A3B60361EE3526A40AA5DA90A29DC3AA940 ====
 
Содержание индексной карты (.CUE)
REM GENRE "Free Improvisation"
REM DATE 2006
REM DISCID 87110D0A
REM COMMENT "ExactAudioCopy v1.0b3"
PERFORMER "Jeff Kaiser & Tom McNalley"
TITLE "Zugzwang"
FILE "01 - Carbon Fianchetto.wav" WAVE
TRACK 01 AUDIO
TITLE "Carbon Fianchetto"
PERFORMER "Jeff Kaiser & Tom McNalley"
INDEX 01 00:00:00
TRACK 02 AUDIO
TITLE "Opening Demand"
PERFORMER "Jeff Kaiser & Tom McNalley"
INDEX 00 12:42:40
FILE "02 - Opening Demand.wav" WAVE
INDEX 01 00:00:00
TRACK 03 AUDIO
TITLE "Systematic Imbalance"
PERFORMER "Jeff Kaiser & Tom McNalley"
INDEX 00 07:26:40
FILE "03 - Systematic Imbalance.wav" WAVE
INDEX 01 00:00:00
TRACK 04 AUDIO
TITLE "Both Varied Situations"
PERFORMER "Jeff Kaiser & Tom McNalley"
INDEX 00 07:28:40
FILE "04 - Both Varied Situations.wav" WAVE
INDEX 01 00:00:00
TRACK 05 AUDIO
TITLE "Organic Symmetry"
PERFORMER "Jeff Kaiser & Tom McNalley"
INDEX 00 07:52:40
FILE "05 - Organic Symmetry.wav" WAVE
INDEX 01 00:00:00
TRACK 06 AUDIO
TITLE "Abbreviated Structure"
PERFORMER "Jeff Kaiser & Tom McNalley"
INDEX 00 04:14:40
FILE "06 - Abbreviated Structure.wav" WAVE
INDEX 01 00:00:00
TRACK 07 AUDIO
TITLE "Luft Swapping"
PERFORMER "Jeff Kaiser & Tom McNalley"
INDEX 00 04:06:40
FILE "07 - Luft Swapping.wav" WAVE
INDEX 01 00:00:00
TRACK 08 AUDIO
TITLE "Zwischenzug"
PERFORMER "Jeff Kaiser & Tom McNalley"
INDEX 00 04:48:40
FILE "08 - Zwischenzug.wav" WAVE
INDEX 01 00:00:00
TRACK 09 AUDIO
TITLE "Aristotelian Blockade"
PERFORMER "Jeff Kaiser & Tom McNalley"
INDEX 00 01:34:40
FILE "09 - Aristotelian Blockade.wav" WAVE
INDEX 01 00:00:00
TRACK 10 AUDIO
TITLE "Liquid Compensation"
PERFORMER "Jeff Kaiser & Tom McNalley"
INDEX 00 11:12:40
FILE "10 - Liquid Compensation.wav" WAVE
INDEX 01 00:00:00
 
Лог проверки качества
d:\>d:\aucdtect -d/-m0 d:\zzz\*.wav
auCDtect: CD records authenticity detector, version 0.8.2
Copyright (c) 2004 Oleg Berngardt. All rights reserved.
Copyright (c) 2004 Alexander Djourik. All rights reserved.
------------------------------------------------------------
Processing file: [01. Carbon Fianchetto.wav]
------------------------------------------------------------
This track looks like CDDA with probability 99%
------------------------------------------------------------
Processing file: [02. Opening Demand.wav]
------------------------------------------------------------
This track looks like CDDA with probability 100%
------------------------------------------------------------
Processing file: [03. Systematic Imbalance.wav]
------------------------------------------------------------
This track looks like CDDA with probability 100%
------------------------------------------------------------
Processing file: [04. Both Varied Situations.wav]
------------------------------------------------------------
This track looks like CDDA with probability 100%
------------------------------------------------------------
Processing file: [05. Organic Symmetry.wav]
------------------------------------------------------------
This track looks like CDDA with probability 100%
------------------------------------------------------------
Processing file: [06. Abbreviated Structure.wav]
------------------------------------------------------------
This track looks like CDDA with probability 100%
------------------------------------------------------------
Processing file: [07. Luft Swapping.wav]
------------------------------------------------------------
This track looks like CDDA with probability 100%
------------------------------------------------------------
Processing file: [08. Zwischenzug.wav]
------------------------------------------------------------
This track looks like CDDA with probability 100%
------------------------------------------------------------
Processing file: [09. Aristotelian Blockade.wav]
------------------------------------------------------------
This track looks like CDDA with probability 100%
------------------------------------------------------------
Processing file: [10. Liquid Compensation.wav]
------------------------------------------------------------
This track looks like CDDA with probability 100%
------------------------------------------------------------
Final Conclusion:
------------------------------------------------------------
These tracks looks like CDDA with probability 100%
Доп. информация:
 
Album Info & AAJ Review
Recorded live (no overdubs) 7.15.05 and 8.7.05 at pfMENTUM World Headquarters, Ventura, CA
Recorded, mixed, mastered and designed by Jeff Kaiser
Recorded live with no overdubs, this duo album features trumpeter Jeff Kaiser and guitarist Tom McNalley in a creative affair where noise plays a major role. The session is serious, contains plenty of motion, and comes with innumerable surprises. The album’s title is a word that refers to forced movement, as in chess. How many times have we found ourselves sitting around wishing to pass on some opportunity or other when we find that we’re compelled to take action? Apparently Kaiser and McNalley feel compelled to fill the room with sheets of noise.
Like a game of chess, the two artists face off with repeated demands from each other. Electronic noises ebb and flow in a continuous motion. Like the gray matter in our heads, the duo’s session sizzles from end to end as if in deep thought. After the first thirteen minutes, a recognizable trumpet and guitar appear with something musical. Spanish ties pop up now and again, but the gist of their action is creative noodling. A few echoes are applied electronically, and the wall-to-wall noise does abate once in awhile.
For the most part, Kaiser is on fire with his squealing horn, while McNalley is equally creative with fingerstyle guitar antics. They both enjoy a fast pace, which at times resembles flamenco dancing. Their intensity is at that level and above.
The natural tension that arises during a chess match appears in the music that Kaiser and McNalley create. With an ear toward science fiction sound effects and another ear toward the instrumental warmup room, the two artists try on different sounds for size. ”Organic Symmetry” differs from the album’s usual pattern by focusing on both instrumentalists as plaintive voices in the wind. Call it a ballad. Muted trumpets echo forcefully while a standard guitar applies walking chords with genuine ease.
” Aristotelian Blockade” runs a similar course, but adds plenty of noise to the equation in order to achieve a balance. Most of Zugzwang, however, relies on wall-to-wall noise for its effects. This is creative music, but it’s not for everyone. --Jim Santella, AllAboutJazz.com
 
Состав
Jeff Kaiser: quarter-tone trumpet, electronics
Tom McNalley: electric guitar, electronics
22:52
234
Нет комментариев. Ваш будет первым!