Вы используете незарегистрированную версию компонента "Вкладки"!

Поиск

(Avant-Garde Jazz, Electroacoustic, pfMENTUM) [CD] Jeff Kaiser & Andrew Pask - The Choir Boys - 2005, FLAC (tracks+.cue), lossless

(Avant-Garde Jazz, Electroacoustic, pfMENTUM) [CD] Jeff Kaiser & Andrew Pask - The Choir Boys - 2005, FLAC (tracks+.cue), lossless
Треклист:
Jeff Kaiser & Andrew Pask / The Choir Boys
Жанр: Avant-Garde Jazz, Electroacoustic, pfMENTUM
Носитель: CD
Страна-производитель диска: US
Год издания: 2005
Издатель (лейбл): pfMENTUM
Номер по каталогу: CD024
Страна: US
Аудиокодек: FLAC (*.flac)
Тип рипа: tracks+.cue
Битрейт аудио: lossless
Продолжительность: 73:52
Источник (релизер): свой фирменный диск
Наличие сканов в содержимом раздачи:
Треклист:
1. Wheeling Rebus 9:24
2. Dim Effigies 9:37
3. Carbon Icon 6:36
4. The Variability Of Stammering Arrows 15:09
5. Blue Air Habit 17:31
6. Tumbling Abstention 5:47
7. Reliquaries 9:44
 
Лог создания рипа
Exact Audio Copy V1.0 beta 3 from 29. August 2011
EAC extraction logfile from 10. January 2014, 23:35
Jeff Kaiser & Andrew Pask / The Choir Boys
Used drive : PIONEER DVD-RW DVR-115D Adapter: 0 ID: 0
Read mode : Secure
Utilize accurate stream : Yes
Defeat audio cache : Yes
Make use of C2 pointers : No
Read offset correction : 48
Overread into Lead-In and Lead-Out : No
Fill up missing offset samples with silence : Yes
Delete leading and trailing silent blocks : No
Null samples used in CRC calculations : Yes
Used interface : Installed external ASPI interface
Gap handling : Appended to previous track
Used output format : User Defined Encoder
Selected bitrate : 896 kBit/s
Quality : High
Add ID3 tag : No
Command line compressor : C:\Program Files\Exact Audio Copy\FLAC\FLAC.EXE
Additional command line options : -6 -V -T "ARTIST=%artist%" -T "TITLE=%title%" -T "ALBUM=%albumtitle%" -T "DATE=%year%" -T "TRACKNUMBER=%tracknr%" -T "GENRE=%genre%" -T "COMMENT=%comment%" -T "BAND=%albuminterpret%" -T "COMPOSER=%composer%" %haslyrics%--tag-from-file=LYRICS="%lyricsfile%"%haslyrics% -T "DISCNUMBER=%cdnumber%" -T "TOTALDISCS=%totalcds%" -T "TOTALTRACKS=%numtracks%" %hascover%--picture="%coverfile%"%hascover% %source% -o %dest%
TOC of the extracted CD
Track | Start | Length | Start sector | End sector
---------------------------------------------------------
1 | 0:00.00 | 9:24.26 | 0 | 42325
2 | 9:24.26 | 9:37.50 | 42326 | 85650
3 | 19:02.01 | 6:36.59 | 85651 | 115409
4 | 25:38.60 | 15:09.61 | 115410 | 183645
5 | 40:48.46 | 17:31.60 | 183646 | 262530
6 | 58:20.31 | 5:47.10 | 262531 | 288565
7 | 64:07.41 | 9:44.60 | 288566 | 332425
Track 1
Filename D:\zzz\01 - Wheeling Rebus.wav
Pre-gap length 0:00:02.00
Peak level 96.6 %
Extraction speed 5.4 X
Track quality 100.0 %
Test CRC C1D0F8B6
Copy CRC C1D0F8B6
Track not present in AccurateRip database
Copy OK
Track 2
Filename D:\zzz\02 - Dim Effigies.wav
Pre-gap length 0:00:01.00
Peak level 96.6 %
Extraction speed 6.1 X
Track quality 99.9 %
Test CRC A69A646B
Copy CRC A69A646B
Track not present in AccurateRip database
Copy OK
Track 3
Filename D:\zzz\03 - Carbon Icon.wav
Pre-gap length 0:00:01.00
Peak level 96.6 %
Extraction speed 7.0 X
Track quality 100.0 %
Test CRC E871BCFA
Copy CRC E871BCFA
Track not present in AccurateRip database
Copy OK
Track 4
Filename D:\zzz\04 - The Variability Of Stammering Arrows.wav
Pre-gap length 0:00:01.00
Peak level 96.6 %
Extraction speed 8.1 X
Track quality 100.0 %
Test CRC 31D54D38
Copy CRC 31D54D38
Track not present in AccurateRip database
Copy OK
Track 5
Filename D:\zzz\05 - Blue Air Habit.wav
Pre-gap length 0:00:01.00
Peak level 96.6 %
Extraction speed 9.1 X
Track quality 100.0 %
Test CRC 3C4D939B
Copy CRC 3C4D939B
Track not present in AccurateRip database
Copy OK
Track 6
Filename D:\zzz\06 - Tumbling Abstention.wav
Pre-gap length 0:00:01.00
Peak level 96.6 %
Extraction speed 9.1 X
Track quality 100.0 %
Test CRC E7FE08C7
Copy CRC E7FE08C7
Track not present in AccurateRip database
Copy OK
Track 7
Filename D:\zzz\07 - Reliquaries.wav
Pre-gap length 0:00:01.00
Peak level 96.6 %
Extraction speed 9.9 X
Track quality 100.0 %
Test CRC A1517D2E
Copy CRC A1517D2E
Track not present in AccurateRip database
Copy OK
None of the tracks are present in the AccurateRip database
No errors occurred
End of status report
==== Log checksum 5436D481AF5C2FF6AA893BFE4F820BD9DC9D7BF86E9D5F55BDC1AE6A93EB61B1 ====
 
Содержание индексной карты (.CUE)
REM GENRE "Free Improvisation"
REM DATE 2005
REM DISCID 54115007
REM COMMENT "ExactAudioCopy v1.0b3"
PERFORMER "Jeff Kaiser & Andrew Pask"
TITLE "The Choir Boys"
FILE "01 - Wheeling Rebus.wav" WAVE
TRACK 01 AUDIO
TITLE "Wheeling Rebus"
PERFORMER "Jeff Kaiser & Andrew Pask"
INDEX 01 00:00:00
TRACK 02 AUDIO
TITLE "Dim Effigies"
PERFORMER "Jeff Kaiser & Andrew Pask"
INDEX 00 09:23:26
FILE "02 - Dim Effigies.wav" WAVE
INDEX 01 00:00:00
TRACK 03 AUDIO
TITLE "Carbon Icon"
PERFORMER "Jeff Kaiser & Andrew Pask"
INDEX 00 09:36:50
FILE "03 - Carbon Icon.wav" WAVE
INDEX 01 00:00:00
TRACK 04 AUDIO
TITLE "The Variability Of Stammering Arrows"
PERFORMER "Jeff Kaiser & Andrew Pask"
INDEX 00 06:35:59
FILE "04 - The Variability Of Stammering Arrows.wav" WAVE
INDEX 01 00:00:00
TRACK 05 AUDIO
TITLE "Blue Air Habit"
PERFORMER "Jeff Kaiser & Andrew Pask"
INDEX 00 15:08:61
FILE "05 - Blue Air Habit.wav" WAVE
INDEX 01 00:00:00
TRACK 06 AUDIO
TITLE "Tumbling Abstention"
PERFORMER "Jeff Kaiser & Andrew Pask"
INDEX 00 17:30:60
FILE "06 - Tumbling Abstention.wav" WAVE
INDEX 01 00:00:00
TRACK 07 AUDIO
TITLE "Reliquaries"
PERFORMER "Jeff Kaiser & Andrew Pask"
INDEX 00 05:46:10
FILE "07 - Reliquaries.wav" WAVE
INDEX 01 00:00:00
 
Лог проверки качества
d:\>d:\aucdtect -d/-m0 d:\zzz\*.wav
auCDtect: CD records authenticity detector, version 0.8.2
Copyright (c) 2004 Oleg Berngardt. All rights reserved.
Copyright (c) 2004 Alexander Djourik. All rights reserved.
------------------------------------------------------------
Processing file: [01. Wheeling Rebus.wav]
------------------------------------------------------------
This track looks like CDDA with probability 100%
------------------------------------------------------------
Processing file: [02. Dim Effigies.wav]
------------------------------------------------------------
This track looks like CDDA with probability 100%
------------------------------------------------------------
Processing file: [03. Carbon Icon.wav]
------------------------------------------------------------
This track looks like CDDA with probability 99%
------------------------------------------------------------
Processing file: [04. The Variability Of Stammering Arrows.wav]
------------------------------------------------------------
This track looks like CDDA with probability 100%
------------------------------------------------------------
Processing file: [05. Blue Air Habit.wav]
------------------------------------------------------------
This track looks like CDDA with probability 100%
------------------------------------------------------------
Processing file: [06. Tumbling Abstention.wav]
------------------------------------------------------------
This track looks like CDDA with probability 100%
------------------------------------------------------------
Processing file: [07. Reliquaries.wav]
------------------------------------------------------------
This track looks like CDDA with probability 100%
------------------------------------------------------------
Final Conclusion:
------------------------------------------------------------
These tracks looks like CDDA with probability 100%
Доп. информация:
 
Album Info & Cadence Building Review
All music recorded live in the studio with no overdubs or pre-recorded samples
Recorded by Andrew Pask, October 16-17, 2004 in Los Feliz, CA
Mixed and mastered by Jeff Kaiser, December 4-5, 2004 in Ventura, CA
Photography by Michael Kelly
Relics from the collection of Michael, Gisele and Devin Kelly
CD art, design and layout by Jeff Kaiser
THE CHOIR BOYS (pfMENTUM 24) features trumpeter JEFF KAISER with multi-instrumentalist ANDREW PASK, who employs clarinet, bass clarinet, soprano sax, alto sax, tenor sax, bass, and pennywhistle in a collage of electronic and acoustic sounds that reveal an interesting musical adventure. It’s a spiritual journey that runs far and wide. The artists who contribute to the unique character of the pfMENTUM label are searching. They’re looking for new and different ways to demonstrate the full extent of their creative powers. Noise and programmed electronics combine with musical tones on this album by two experimenters in the field. Pask brings a muscular approach to his woodwind instruments, while Kaiser prefers to surround the performance arena with mystic colors and hypnotic drones. The airy tone of Pask’s clarinet flirts with Kaiser’s tightly muted trumpet in a whirlwind of ideas. Later, his fluid bass clarinet runs up and down in cascades that never end. Pask’s saxophones introduce threads of Jazz history to the session, while Kaiser’s open horns reveal virtuosic technique. Snippets of melody dance about with animated motion, as the two artists return again and again to a theme of spirituality. While the album’s cover art depicts scenes from the church, the duo’s music (Wheeling Rebus/ Dim Effigies/ Carbon Icon/ The Variability of Stammering Arrows/ Blue Air Habit/ Tumbling Abstention/ Reliquaries. 73:48. Oct. 16-17, 2004, Los Feliz, CA) moves far beyond the walls of that hallowed institution. Science Fiction and deep philosophic studies carry a large part of its connotation. You can feel the spirit of the session moving you toward some kind of target light at the end of a tunnel. While much of the album’s textural matter appears dark and dramatic, Kaiser and Pask leave plenty of room for uplifting interpretations. Free music begets free interpretation. Kaiser and Pask, both highly creative artists, have succeeded in opening doors for continued study of their musical product. - Jim Santella, Cadence, May 2005
 
Состав
Jeff Kaiser: trumpet, quarter-tone trumpet, flugelhorn, live processing
Andrew Pask: clarinet, bass clarinet, soprano/alto/tenor saxophones, bass penny whistle, live processing
Any questions -> support@pro-jazz.com. По всем вопросам пишите -> support@pro-jazz.com
22:51
159
Нет комментариев. Ваш будет первым!