Вы используете незарегистрированную версию компонента "Вкладки"!

Поиск

(Avant-Garde Jazz, Electroacoustic, Free Improvisation) [CD] Philipp Wachsmann, Peter Ole Jorgensen, Jakob Riis - Expanded Botanics - 2003, FLAC (tracks+.cue), lossless

Треклист:
Philipp Wachsmann, Peter Ole Jorgensen, Jakob Riis / Expanded Botanics
Жанр: Avant-Garde Jazz, Electroacoustic, Free Improvisation
Носитель: CD
Страна-производитель диска: Denmark
Год издания: 2003
Издатель (лейбл): Ninth World Music
Номер по каталогу: NWM 031CD
Страна: UK, Denmark
Аудиокодек: FLAC (*.flac)
Тип рипа: tracks+.cue
Битрейт аудио: lossless
Продолжительность: 59:34
Источник (релизер): свой фирменный диск
Наличие сканов в содержимом раздачи:
Треклист:
1. Aboretum Et 9:38
2. Aboretum To 3:27
3. Aboretum Tre 3:36
4. Aboretum Fire 6:36
5. Aboretum Fem 5:08
6. Aboretum Seks 4:12
7. Aboretum Syv 19:50
8. Aboretum Otte 6:38
 
Лог создания рипа
Exact Audio Copy V1.0 beta 3 from 29. August 2011
EAC extraction logfile from 8. July 2014, 11:49
Philipp Wachsmann, Peter Ole Jorgensen, Jakob Riis / Expanded Botanics
Used drive : PIONEER DVD-RW DVR-115D Adapter: 0 ID: 0
Read mode : Secure
Utilize accurate stream : Yes
Defeat audio cache : Yes
Make use of C2 pointers : No
Read offset correction : 48
Overread into Lead-In and Lead-Out : No
Fill up missing offset samples with silence : Yes
Delete leading and trailing silent blocks : No
Null samples used in CRC calculations : Yes
Used interface : Installed external ASPI interface
Gap handling : Appended to previous track
Used output format : User Defined Encoder
Selected bitrate : 896 kBit/s
Quality : High
Add ID3 tag : No
Command line compressor : C:\Program Files\Exact Audio Copy\FLAC\FLAC.EXE
Additional command line options : -6 -V -T "ARTIST=%artist%" -T "TITLE=%title%" -T "ALBUM=%albumtitle%" -T "DATE=%year%" -T "TRACKNUMBER=%tracknr%" -T "GENRE=%genre%" -T "COMMENT=%comment%" -T "BAND=%albuminterpret%" -T "COMPOSER=%composer%" %haslyrics%--tag-from-file=LYRICS="%lyricsfile%"%haslyrics% -T "DISCNUMBER=%cdnumber%" -T "TOTALDISCS=%totalcds%" -T "TOTALTRACKS=%numtracks%" %hascover%--picture="%coverfile%"%hascover% %source% -o %dest%
TOC of the extracted CD
Track | Start | Length | Start sector | End sector
---------------------------------------------------------
1 | 0:00.00 | 9:45.66 | 0 | 43940
2 | 9:45.66 | 3:29.49 | 43941 | 59664
3 | 13:15.40 | 3:38.02 | 59665 | 76016
4 | 16:53.42 | 6:36.11 | 76017 | 105727
5 | 23:29.53 | 5:11.74 | 105728 | 129126
6 | 28:41.52 | 4:19.00 | 129127 | 148551
7 | 33:00.52 | 19:55.13 | 148552 | 238189
8 | 52:55.65 | 6:38.21 | 238190 | 268060
Track 1
Filename D:\zzz\01 - Aboretum Et.wav
Pre-gap length 0:00:02.00
Peak level 99.9 %
Extraction speed 5.0 X
Track quality 100.0 %
Test CRC 0552FE4E
Copy CRC 0552FE4E
Track not present in AccurateRip database
Copy OK
Track 2
Filename D:\zzz\02 - Aboretum To.wav
Pre-gap length 0:00:06.74
Peak level 99.9 %
Extraction speed 5.2 X
Track quality 100.0 %
Test CRC 19A57405
Copy CRC 19A57405
Track not present in AccurateRip database
Copy OK
Track 3
Filename D:\zzz\03 - Aboretum Tre.wav
Pre-gap length 0:00:02.00
Peak level 99.9 %
Extraction speed 5.5 X
Track quality 100.0 %
Test CRC FE3E05C6
Copy CRC FE3E05C6
Track not present in AccurateRip database
Copy OK
Track 4
Filename D:\zzz\04 - Aboretum Fire.wav
Pre-gap length 0:00:02.01
Peak level 99.9 %
Extraction speed 6.3 X
Track quality 100.0 %
Test CRC F26F7437
Copy CRC F26F7437
Track not present in AccurateRip database
Copy OK
Track 5
Filename D:\zzz\05 - Aboretum Fem.wav
Peak level 99.9 %
Extraction speed 6.7 X
Track quality 100.0 %
Test CRC 9BBD620F
Copy CRC 9BBD620F
Track not present in AccurateRip database
Copy OK
Track 6
Filename D:\zzz\06 - Aboretum Seks.wav
Pre-gap length 0:00:03.00
Peak level 99.9 %
Extraction speed 6.8 X
Track quality 100.0 %
Test CRC 478BCF81
Copy CRC 478BCF81
Track not present in AccurateRip database
Copy OK
Track 7
Filename D:\zzz\07 - Aboretum Syv.wav
Pre-gap length 0:00:06.45
Peak level 99.9 %
Extraction speed 8.1 X
Track quality 99.9 %
Test CRC 540B0AB9
Copy CRC 540B0AB9
Track not present in AccurateRip database
Copy OK
Track 8
Filename D:\zzz\08 - Aboretum Otte.wav
Pre-gap length 0:00:05.00
Peak level 99.9 %
Extraction speed 8.6 X
Track quality 100.0 %
Test CRC 1AC60CFB
Copy CRC 1AC60CFB
Track not present in AccurateRip database
Copy OK
None of the tracks are present in the AccurateRip database
No errors occurred
End of status report
==== Log checksum AF14C1BACE0E5BDFDB8DDB522C3607DAECFC4C49D9FDB6A11064C192985E7173 ====
 
Содержание индексной карты (.CUE)
REM GENRE "Electroacoustic Improvisation"
REM DATE 2003
REM DISCID 6E0DF608
REM COMMENT "ExactAudioCopy v1.0b3"
PERFORMER "Philipp Wachsmann, Peter Ole Jorgensen, Jakob Riis"
TITLE "Expanded Botanics"
FILE "01 - Aboretum Et.wav" WAVE
TRACK 01 AUDIO
TITLE "Aboretum Et"
PERFORMER "Philipp Wachsmann, Peter Ole Jorgensen, Jakob Riis"
INDEX 01 00:00:00
TRACK 02 AUDIO
TITLE "Aboretum To"
PERFORMER "Philipp Wachsmann, Peter Ole Jorgensen, Jakob Riis"
INDEX 00 09:38:67
FILE "02 - Aboretum To.wav" WAVE
INDEX 01 00:00:00
TRACK 03 AUDIO
TITLE "Aboretum Tre"
PERFORMER "Philipp Wachsmann, Peter Ole Jorgensen, Jakob Riis"
INDEX 00 03:27:49
FILE "03 - Aboretum Tre.wav" WAVE
INDEX 01 00:00:00
TRACK 04 AUDIO
TITLE "Aboretum Fire"
PERFORMER "Philipp Wachsmann, Peter Ole Jorgensen, Jakob Riis"
INDEX 00 03:36:01
FILE "04 - Aboretum Fire.wav" WAVE
INDEX 01 00:00:00
FILE "05 - Aboretum Fem.wav" WAVE
TRACK 05 AUDIO
TITLE "Aboretum Fem"
PERFORMER "Philipp Wachsmann, Peter Ole Jorgensen, Jakob Riis"
INDEX 01 00:00:00
TRACK 06 AUDIO
TITLE "Aboretum Seks"
PERFORMER "Philipp Wachsmann, Peter Ole Jorgensen, Jakob Riis"
INDEX 00 05:08:74
FILE "06 - Aboretum Seks.wav" WAVE
INDEX 01 00:00:00
TRACK 07 AUDIO
TITLE "Aboretum Syv"
PERFORMER "Philipp Wachsmann, Peter Ole Jorgensen, Jakob Riis"
INDEX 00 04:12:30
FILE "07 - Aboretum Syv.wav" WAVE
INDEX 01 00:00:00
TRACK 08 AUDIO
TITLE "Aboretum Otte"
PERFORMER "Philipp Wachsmann, Peter Ole Jorgensen, Jakob Riis"
INDEX 00 19:50:13
FILE "08 - Aboretum Otte.wav" WAVE
INDEX 01 00:00:00
 
Лог проверки качества
d:\>d:\aucdtect -d/-m0 d:\zzz\*.wav
auCDtect: CD records authenticity detector, version 0.8.2
Copyright (c) 2004 Oleg Berngardt. All rights reserved.
Copyright (c) 2004 Alexander Djourik. All rights reserved.
------------------------------------------------------------
Processing file: [01. Aboretum Et.wav]
------------------------------------------------------------
This track looks like CDDA with probability 100%
------------------------------------------------------------
Processing file: [02. Aboretum To.wav]
------------------------------------------------------------
This track looks like CDDA with probability 100%
------------------------------------------------------------
Processing file: [03. Aboretum Tre.wav]
------------------------------------------------------------
This track looks like CDDA with probability 100%
------------------------------------------------------------
Processing file: [04. Aboretum Fire.wav]
------------------------------------------------------------
This track looks like CDDA with probability 100%
------------------------------------------------------------
Processing file: [05. Aboretum Fem.wav]
------------------------------------------------------------
This track looks like CDDA with probability 100%
------------------------------------------------------------
Processing file: [06. Aboretum Seks.wav]
------------------------------------------------------------
This track looks like CDDA with probability 100%
------------------------------------------------------------
Processing file: [07. Aboretum Syv.wav]
------------------------------------------------------------
This track looks like CDDA with probability 100%
------------------------------------------------------------
Processing file: [08. Aboretum Otte.wav]
------------------------------------------------------------
This track looks like CDDA with probability 100%
------------------------------------------------------------
Final Conclusion:
------------------------------------------------------------
These tracks looks like CDDA with probability 100%
Доп. информация:
 
Album Info & JazzWeekly Review
All compositions by Wachsmann, Jorgensen & Riis
Produced by Peter Ole Jorgensen & Jakob Riis
Recorded on December 8th 2002 at Ninth World Studios
Mixed & mastered February 2003 at Ninth World Studios
Cover by Peter Ole Jorgensen
Layout by Renee Paaschburg
Violin, percussion and laptop may seem like the sort of improv mixture unique to the 21st Century. But then again so are cross-border, co-op aggregations like this one, whose name and that of its CD are both Expanded Botanics. An on-and-off team since 2002, the band consists of one veteran British-Ugandan improviser -- violinist Philipp Wachsmann -- and two Danes: Peter Ole Jørgensen on drums, percussion and, most importantly home-built instruments, and Jakob Riis on laptop.
Abrasive yet low key at the same time, the music the trio makes is definitely 21st Century as well, calling on multi-disciplinary familiarity from all three. Riis comes from a compositional background, but mixes electronic music and sound art with performances with the Minijacks laptop quartet and drummer Stefan Pasborg's improv group Toxicum. Jørgens works with bassist Peter Friis Nielsen and German saxophonist Peter Brötzmann in the Wild Mans Band. Classically-trained, Wachsmann, who adds electronics to his violin here, is an important part of British reedist Evan Parker's Electronic Project as well as a duo with German drummer Martin Blume.
With such cumulative backgrounds it would seem that there isn't a sound extant that would surprise any of the participants. You can hear that on the almost 20-minute "Aboretum syv". Here Wachsmann's jettes and pizzicato plucks seem to feed back into the mix either from his electronics or sequenced effects from Riis' laptop. This is after the splayed fiddle movement has advanced, double-stopping over a base of drum rumbles, cymbal snaps and staticy flutters from the computer.
As the violinist's wood rending builds up to abrasive scratches and swerves, the laptopist produces hoof beat sounds, likely with a ring modulator. Soon, among the scratches and fluttering static you can hear the fiddle clones applying col legno tremolos and unvarying arpeggios. Then, for additional metallic squeak, the human violinist applies his bow both sul ponticello and sul tasto over the fingerboards and near the bridge. At this point Jørgensen too rouses himself from beneath the gravelly interference to construct original timbres out of each gong strike that makes up his bell tree and tam tams. Pushing reverberating loops to the side, Wachsmann scratches out a double- stopped almost classical theme for the finale.
Elsewhere, precise marimba-type pressures are upfront. Throughout, homemade percussion objects emulate the concussion strikes on items as disparate as chains, maracas, hubcaps and hollow logs. However on tracks like "Aboretum fire", in between what sounds like pointed sticks grating on drumhead parchment, Jørgensen is content with standard ruffs, flams and paradiddles.
Earlier on, Riis has used buzzing oscillations to replicate the sound of railway level crossing bell, the crumpling of tin foil and the ratcheting smacks of a pin ball game -- through the last might be the percussionist's contribution. "Aboretum otte", is Riis's showcase nonetheless, with sudden barks and resonation pushing aside hissing sine waves and twittering loops to meet ponticello violin swoops on their own terms. A static crackle ends the track and the session.
Although little of EXPANDED BOTANICS could be related to anything green or growing, the cross-fertilization of sounds produces some memorable music. -- Ken Waxman
 
Состав
Philipp Wachsmann: violin & electronics
Peter Ole Jorgensen: drums, percussion & homebuild instruments
Jakob Riis: laptop
По всем вопросам пишите личное сообщение пользователю M0p94ok.
04:23
178
Нет комментариев. Ваш будет первым!