Вы используете незарегистрированную версию компонента "Вкладки"!

Поиск

(Avant-Garde Jazz, Between The Lines, Contemporary Jazz) [CD] Andreas Willers (w/ Paul Bley, Yves Robert, Horst Nonnenmacher) - In The North - 2003, FLAC (tracks+.cue), lossless

(Avant-Garde Jazz, Between The Lines, Contemporary Jazz) [CD] Andreas Willers (w/ Paul Bley, Yves Robert, Horst Nonnenmacher) - In The North - 2003, FLAC (tracks+.cue), lossless
Треклист:
Andreas Willers / In The North
Жанр: Avant-Garde Jazz, Between The Lines, Contemporary Jazz
Носитель: CD
Страна-производитель диска: Germany
Год издания: 2003
Издатель (лейбл): Between The Lines
Номер по каталогу: BTL 026 / EFA 10196-2
Страна: Germany
Аудиокодек: FLAC (*.flac)
Тип рипа: tracks+.cue
Битрейт аудио: lossless
Продолжительность: 47:16
Источник (релизер): свой фирменный диск
Наличие сканов в содержимом раздачи:
Треклист:
1. Variations On Yggdrasill By Jimmy Giuffre 2:04
2. Carla 3:08
3. Divided Man 8:42
4. Mood 3:17
5. In The North 4:27
6. Motion 2:54
7. Face One 3:07
8. Face Two 2:58
9. The Train & The River 3:38
10. Voodoo 3:28
11. Glaswerk 3:26
12. Motif 4:29
13. Gotta Dance 0:43
 
Лог создания рипа
Exact Audio Copy V1.0 beta 3 from 29. August 2011
EAC extraction logfile from 8. July 2014, 22:54
Andreas Willers / In The North
Used drive : PIONEER DVD-RW DVR-115D Adapter: 0 ID: 0
Read mode : Secure
Utilize accurate stream : Yes
Defeat audio cache : Yes
Make use of C2 pointers : No
Read offset correction : 48
Overread into Lead-In and Lead-Out : No
Fill up missing offset samples with silence : Yes
Delete leading and trailing silent blocks : No
Null samples used in CRC calculations : Yes
Used interface : Installed external ASPI interface
Gap handling : Appended to previous track
Used output format : User Defined Encoder
Selected bitrate : 896 kBit/s
Quality : High
Add ID3 tag : No
Command line compressor : C:\Program Files\Exact Audio Copy\FLAC\FLAC.EXE
Additional command line options : -6 -V -T "ARTIST=%artist%" -T "TITLE=%title%" -T "ALBUM=%albumtitle%" -T "DATE=%year%" -T "TRACKNUMBER=%tracknr%" -T "GENRE=%genre%" -T "COMMENT=%comment%" -T "BAND=%albuminterpret%" -T "COMPOSER=%composer%" %haslyrics%--tag-from-file=LYRICS="%lyricsfile%"%haslyrics% -T "DISCNUMBER=%cdnumber%" -T "TOTALDISCS=%totalcds%" -T "TOTALTRACKS=%numtracks%" %hascover%--picture="%coverfile%"%hascover% %source% -o %dest%
TOC of the extracted CD
Track | Start | Length | Start sector | End sector
---------------------------------------------------------
1 | 0:00.00 | 2:07.29 | 0 | 9553
2 | 2:07.29 | 3:12.23 | 9554 | 23976
3 | 5:19.52 | 8:45.44 | 23977 | 63395
4 | 14:05.21 | 3:21.36 | 63396 | 78506
5 | 17:26.57 | 4:31.03 | 78507 | 98834
6 | 21:57.60 | 2:58.08 | 98835 | 112192
7 | 24:55.68 | 3:10.58 | 112193 | 126500
8 | 28:06.51 | 3:03.37 | 126501 | 140262
9 | 31:10.13 | 3:41.34 | 140263 | 156871
10 | 34:51.47 | 3:32.59 | 156872 | 172830
11 | 38:24.31 | 3:28.34 | 172831 | 188464
12 | 41:52.65 | 4:37.49 | 188465 | 209288
13 | 46:30.39 | 0:45.01 | 209289 | 212664
Track 1
Filename D:\zzz\01 - Variations On Yggdrasill By Jimmy Guiffre.wav
Pre-gap length 0:00:02.00
Peak level 100.0 %
Extraction speed 2.2 X
Track quality 100.0 %
Test CRC C218FA0F
Copy CRC C218FA0F
Accurately ripped (confidence 1) [8540409C] (AR v2)
Copy OK
Track 2
Filename D:\zzz\02 - Carla.wav
Pre-gap length 0:00:03.00
Peak level 99.9 %
Extraction speed 2.6 X
Track quality 100.0 %
Test CRC B92FE71F
Copy CRC B92FE71F
Accurately ripped (confidence 1) [FB525708] (AR v2)
Copy OK
Track 3
Filename D:\zzz\03 - Divided Man.wav
Pre-gap length 0:00:01.00
Peak level 100.0 %
Extraction speed 3.3 X
Track quality 100.0 %
Test CRC 0C66D4EC
Copy CRC 0C66D4EC
Accurately ripped (confidence 1) [BE5BBE0E] (AR v2)
Copy OK
Track 4
Filename D:\zzz\04 - Mood.wav
Pre-gap length 0:00:02.00
Peak level 99.9 %
Extraction speed 2.8 X
Track quality 99.9 %
Test CRC EB19B3BD
Copy CRC EB19B3BD
Accurately ripped (confidence 1) [6D8D4010] (AR v2)
Copy OK
Track 5
Filename D:\zzz\05 - In The North.wav
Pre-gap length 0:00:01.00
Peak level 99.9 %
Extraction speed 3.6 X
Track quality 100.0 %
Test CRC C959E06E
Copy CRC C959E06E
Accurately ripped (confidence 1) [7A713782] (AR v2)
Copy OK
Track 6
Filename D:\zzz\06 - Motion.wav
Pre-gap length 0:00:02.00
Peak level 99.9 %
Extraction speed 3.5 X
Track quality 100.0 %
Test CRC 1CE2C85B
Copy CRC 1CE2C85B
Accurately ripped (confidence 1) [949DBF9F] (AR v2)
Copy OK
Track 7
Filename D:\zzz\07 - Face One.wav
Pre-gap length 0:00:01.00
Peak level 99.9 %
Extraction speed 3.7 X
Track quality 100.0 %
Test CRC 2BDB1D38
Copy CRC 2BDB1D38
Accurately ripped (confidence 1) [D8BABCE9] (AR v2)
Copy OK
Track 8
Filename D:\zzz\08 - Face Two.wav
Pre-gap length 0:00:01.00
Peak level 99.9 %
Extraction speed 3.8 X
Track quality 100.0 %
Test CRC 3BC186E5
Copy CRC 3BC186E5
Accurately ripped (confidence 1) [972FE639] (AR v2)
Copy OK
Track 9
Filename D:\zzz\09 - The Train & The River.wav
Pre-gap length 0:00:02.00
Peak level 100.0 %
Extraction speed 3.5 X
Track quality 99.9 %
Test CRC D47536A4
Copy CRC D47536A4
Accurately ripped (confidence 1) [809B7F4F] (AR v2)
Copy OK
Track 10
Filename D:\zzz\10 - Voodoo.wav
Pre-gap length 0:00:01.00
Peak level 100.0 %
Extraction speed 3.6 X
Track quality 99.9 %
Test CRC 593E66ED
Copy CRC 593E66ED
Accurately ripped (confidence 1) [D8E7DF1F] (AR v2)
Copy OK
Track 11
Filename D:\zzz\11 - Glaswerk.wav
Pre-gap length 0:00:03.00
Peak level 100.0 %
Extraction speed 3.7 X
Track quality 99.9 %
Test CRC 60E2F123
Copy CRC 60E2F123
Accurately ripped (confidence 1) [2497DC4A] (AR v2)
Copy OK
Track 12
Filename D:\zzz\12 - Motif.wav
Pre-gap length 0:00:02.00
Peak level 99.9 %
Extraction speed 4.5 X
Track quality 100.0 %
Test CRC 0D4981BB
Copy CRC 0D4981BB
Accurately ripped (confidence 1) [75004C6C] (AR v2)
Copy OK
Track 13
Filename D:\zzz\13 - Gotta Dance.wav
Pre-gap length 0:00:02.00
Peak level 63.1 %
Extraction speed 2.8 X
Track quality 100.0 %
Test CRC 33DE1153
Copy CRC 33DE1153
Accurately ripped (confidence 1) [F3B28C2C] (AR v2)
Copy OK
All tracks accurately ripped
No errors occurred
End of status report
==== Log checksum 1981D6AA33877408198CA64E37AA3EA7770AD9AC19CCF51D53FC609B4D907523 ====
 
Содержание индексной карты (.CUE)
REM GENRE "Contemporary Jazz"
REM DATE 2003
REM DISCID B90B130D
REM COMMENT "ExactAudioCopy v1.0b3"
PERFORMER "Andreas Willers"
TITLE "In The North"
FILE "01 - Variations On Yggdrasill By Jimmy Guiffre.wav" WAVE
TRACK 01 AUDIO
TITLE "Variations On Yggdrasill By Jimmy Guiffre"
PERFORMER "Andreas Willers"
INDEX 01 00:00:00
TRACK 02 AUDIO
TITLE "Carla"
PERFORMER "Andreas Willers"
INDEX 00 02:04:29
FILE "02 - Carla.wav" WAVE
INDEX 01 00:00:00
TRACK 03 AUDIO
TITLE "Divided Man"
PERFORMER "Andreas Willers"
INDEX 00 03:11:23
FILE "03 - Divided Man.wav" WAVE
INDEX 01 00:00:00
TRACK 04 AUDIO
TITLE "Mood"
PERFORMER "Andreas Willers"
INDEX 00 08:43:44
FILE "04 - Mood.wav" WAVE
INDEX 01 00:00:00
TRACK 05 AUDIO
TITLE "In The North"
PERFORMER "Andreas Willers"
INDEX 00 03:20:36
FILE "05 - In The North.wav" WAVE
INDEX 01 00:00:00
TRACK 06 AUDIO
TITLE "Motion"
PERFORMER "Andreas Willers"
INDEX 00 04:29:03
FILE "06 - Motion.wav" WAVE
INDEX 01 00:00:00
TRACK 07 AUDIO
TITLE "Face One"
PERFORMER "Andreas Willers"
INDEX 00 02:57:08
FILE "07 - Face One.wav" WAVE
INDEX 01 00:00:00
TRACK 08 AUDIO
TITLE "Face Two"
PERFORMER "Andreas Willers"
INDEX 00 03:09:58
FILE "08 - Face Two.wav" WAVE
INDEX 01 00:00:00
TRACK 09 AUDIO
TITLE "The Train & The River"
PERFORMER "Andreas Willers"
INDEX 00 03:01:37
FILE "09 - The Train & The River.wav" WAVE
INDEX 01 00:00:00
TRACK 10 AUDIO
TITLE "Voodoo"
PERFORMER "Andreas Willers"
INDEX 00 03:40:34
FILE "10 - Voodoo.wav" WAVE
INDEX 01 00:00:00
TRACK 11 AUDIO
TITLE "Glaswerk"
PERFORMER "Andreas Willers"
INDEX 00 03:29:59
FILE "11 - Glaswerk.wav" WAVE
INDEX 01 00:00:00
TRACK 12 AUDIO
TITLE "Motif"
PERFORMER "Andreas Willers"
INDEX 00 03:26:34
FILE "12 - Motif.wav" WAVE
INDEX 01 00:00:00
TRACK 13 AUDIO
TITLE "Gotta Dance"
PERFORMER "Andreas Willers"
INDEX 00 04:35:49
FILE "13 - Gotta Dance.wav" WAVE
INDEX 01 00:00:00
 
Лог проверки качества
d:\>d:\aucdtect -d/-m0 d:\zzz\*.wav
auCDtect: CD records authenticity detector, version 0.8.2
Copyright (c) 2004 Oleg Berngardt. All rights reserved.
Copyright (c) 2004 Alexander Djourik. All rights reserved.
------------------------------------------------------------
Processing file: [01. Variations On Yggdrasill By Jimmy Guiffre.wav]
------------------------------------------------------------
This track looks like CDDA with probability 99%
------------------------------------------------------------
Processing file: [02. Carla.wav]
------------------------------------------------------------
This track looks like CDDA with probability 100%
------------------------------------------------------------
Processing file: [03. Divided Man.wav]
------------------------------------------------------------
This track looks like CDDA with probability 100%
------------------------------------------------------------
Processing file: [04. Mood.wav]
------------------------------------------------------------
This track looks like CDDA with probability 54%
------------------------------------------------------------
Processing file: [05. In The North.wav]
------------------------------------------------------------
This track looks like CDDA with probability 100%
------------------------------------------------------------
Processing file: [06. Motion.wav]
------------------------------------------------------------
This track looks like CDDA with probability 100%
------------------------------------------------------------
Processing file: [07. Face One.wav]
------------------------------------------------------------
This track looks like MPEG with probability 93%
------------------------------------------------------------
Processing file: [08. Face Two.wav]
------------------------------------------------------------
This track looks like CDDA with probability 85%
------------------------------------------------------------
Processing file: [09. The Train & The River.wav]
------------------------------------------------------------
This track looks like CDDA with probability 99%
------------------------------------------------------------
Processing file: [10. Voodoo.wav]
------------------------------------------------------------
This track looks like CDDA with probability 100%
------------------------------------------------------------
Processing file: [11. Glaswerk.wav]
------------------------------------------------------------
This track looks like CDDA with probability 100%
------------------------------------------------------------
Processing file: [12. Motif.wav]
------------------------------------------------------------
This track looks like CDDA with probability 100%
------------------------------------------------------------
Processing file: [13. Gotta Dance.wav]
------------------------------------------------------------
This track looks like CDDA with probability 100%
------------------------------------------------------------
Final Conclusion:
------------------------------------------------------------
These tracks looks like CDDA with probability 100%
Доп. информация:
 
Album Info
(A. Willers) - 1,5,11
(P. Bley) - 2,7
(J. Giuffre) - 3,9,10,13
(Bley/Nonnenmacher/Robert/Willers) - 4,6
(Bley/Willers) - 8
(Bley/Nonnenmacher/Willers) - 12
Recorded at Loft, Cologne, April 16 & 17, mixed May 16, 2001
Engineer: Christian Heck
Photography: Gerald Domenig
Graphic design: fuhrer vienna
Produced by between the lines GmbH & Co. oHG
Artistic director: Franz Koglmann
Liner notes: Andreas Willers
 
Состав
Paul Bley: piano
Yves Robert: trombone
Andreas Willers: el. & ac. guitars, classical guitar (on 10.)
Horst Nonnenmacher: acoustic bass
По всем вопросам пишите личное сообщение пользователю M0p94ok.
04:23
183
Нет комментариев. Ваш будет первым!