Поиск

(Avant-Garde Jazz, Electroacoustic, FMR, British Jazz) [CD] (Roger Dean) Lysis & AustraLysis Electroband (feat. Chris Laurence, Geoff Warren, Kenny Wheeler) - Lysis Lives: Resounding In The Mirror (2CD) - 2000, FLAC (tracks+.cue), lossless

(Avant-Garde Jazz, Electroacoustic, FMR, British Jazz) [CD] (Roger Dean) Lysis & AustraLysis Electroband (feat. Chris Laurence, Geoff Warren, Kenny Wheeler) - Lysis Lives: Resounding In The Mirror (2CD) - 2000, FLAC (tracks+.cue), lossless
Треклист:
(Roger Dean) Lysis & AustraLysis Electroband / Lysis Lives: Resounding In The Mirror (2CD)
Жанр: Avant-Garde Jazz, Electroacoustic, FMR, British Jazz
Носитель: CD
Страна-производитель диска: UK
Год издания: 2000
Издатель (лейбл): FMR Records
Номер по каталогу: FMRCD73-0900
Страна исполнителя (группы): UK
Аудиокодек: FLAC (*.flac)
Тип рипа: tracks+.cue
Битрейт аудио: lossless
Продолжительность: 75:02 + 77:38
Источник (релизер): свой фирменный диск
Наличие сканов в содержимом раздачи:
Треклист:
 
CD1
Lysis Live
1. Wheeling (69/2) 7:18
2. Trio Improvisation 1 5:18
3. Electric Suite (73/1; 75/3) 11:59
4. Piano Improvisation 1 1:49
5. Threely (69/1) 7:30
6. Trio Improvisation 2 3:26
7. Trio (75/2) 8:12
8. Duo (75/4) 7:34
AustraLysis Electroband: ReSounding
9. ReSampled 3:38
10. Where 2:59
11. Where Ever? 3:46
12. Recorded Shape 4:27
13. The Cart, The Gate, The Egg And The Horse 2:24
14. Deserted Quiet 4:34
 
CD2
AustraLysis Electroband: ReSounding (continued)
1. Lucent Harmonic 6:38
2. Mousse 8:12
3. MSP (More Sensory Perception) 4:33
4. Underworld 4:51
5. ReSiling Harmonies 4:29
6. The Engine 2:52
Lysis Plus with Kenny Wheeler
7. Destructures 6 Part 1 19:48
8. Destructures 6 Part 2 12:12
9. Quartet (76/11) 13:59
 
Лог создания рипа
 
CD1
Exact Audio Copy V1.0 beta 3 from 29. August 2011
EAC extraction logfile from 3. November 2014, 18:12
Lysis & AustraLysis Electroband / LysisLives: Resounding In The Mirror CD1
Used drive : PIONEER DVD-RW DVR-115D Adapter: 0 ID: 0
Read mode : Secure
Utilize accurate stream : Yes
Defeat audio cache : Yes
Make use of C2 pointers : No
Read offset correction : 48
Overread into Lead-In and Lead-Out : No
Fill up missing offset samples with silence : Yes
Delete leading and trailing silent blocks : No
Null samples used in CRC calculations : Yes
Used interface : Installed external ASPI interface
Gap handling : Appended to previous track
Used output format : User Defined Encoder
Selected bitrate : 768 kBit/s
Quality : High
Add ID3 tag : No
Command line compressor : C:\Program Files\Exact Audio Copy\Flac\flac.exe
Additional command line options : -6 -V -T "ARTIST=%artist%" -T "TITLE=%title%" -T "ALBUM=%albumtitle%" -T "DATE=%year%" -T "TRACKNUMBER=%tracknr%" -T "GENRE=%genre%" -T "COMMENT=%comment%" -T "BAND=%albuminterpret%" -T "COMPOSER=%composer%" %haslyrics%--tag-from-file=LYRICS="%lyricsfile%"%haslyrics% -T "DISCNUMBER=%cdnumber%" -T "TOTALDISCS=%totalcds%" -T "TOTALTRACKS=%numtracks%" %hascover%--picture="%coverfile%"%hascover% %source% -o %dest%
TOC of the extracted CD
Track | Start | Length | Start sector | End sector
---------------------------------------------------------
1 | 0:00.00 | 7:18.52 | 0 | 32901
2 | 7:18.52 | 5:18.04 | 32902 | 56755
3 | 12:36.56 | 11:59.58 | 56756 | 110738
4 | 24:36.39 | 1:49.02 | 110739 | 118915
5 | 26:25.41 | 7:30.70 | 118916 | 152735
6 | 33:56.36 | 3:26.49 | 152736 | 168234
7 | 37:23.10 | 8:12.74 | 168235 | 205208
8 | 45:36.09 | 7:34.35 | 205209 | 239293
9 | 53:10.44 | 3:38.32 | 239294 | 255675
10 | 56:49.01 | 2:59.35 | 255676 | 269135
11 | 59:48.36 | 3:46.59 | 269136 | 286144
12 | 63:35.20 | 4:27.72 | 286145 | 306241
13 | 68:03.17 | 2:24.50 | 306242 | 317091
14 | 70:27.67 | 4:34.36 | 317092 | 337677
Track 1
Filename D:\zzz\01 - Wheeling (69,2).wav
Pre-gap length 0:00:02.00
Peak level 96.6 %
Extraction speed 5.1 X
Track quality 100.0 %
Test CRC BF077FC3
Copy CRC BF077FC3
Track not present in AccurateRip database
Copy OK
Track 2
Filename D:\zzz\02 - Trio Improvisation 1.wav
Pre-gap length 0:00:07.00
Peak level 87.1 %
Extraction speed 5.1 X
Track quality 99.9 %
Test CRC 22ED1293
Copy CRC 22ED1293
Track not present in AccurateRip database
Copy OK
Track 3
Filename D:\zzz\03 - Electric Suite (73,1; 75,3).wav
Pre-gap length 0:00:07.00
Peak level 80.7 %
Extraction speed 6.4 X
Track quality 99.9 %
Test CRC 2041D0F3
Copy CRC 2041D0F3
Track not present in AccurateRip database
Copy OK
Track 4
Filename D:\zzz\04 - Piano Improvisation 1.wav
Pre-gap length 0:00:07.00
Peak level 49.8 %
Extraction speed 5.7 X
Track quality 100.0 %
Test CRC 271FF855
Copy CRC 271FF855
Track not present in AccurateRip database
Copy OK
Track 5
Filename D:\zzz\05 - Threely (69,1).wav
Pre-gap length 0:00:07.00
Peak level 69.8 %
Extraction speed 7.4 X
Track quality 100.0 %
Test CRC 7075A8A4
Copy CRC 7075A8A4
Track not present in AccurateRip database
Copy OK
Track 6
Filename D:\zzz\06 - Trio Improvisation 2.wav
Pre-gap length 0:00:07.00
Peak level 94.1 %
Extraction speed 7.0 X
Track quality 100.0 %
Test CRC 0DEC5746
Copy CRC 0DEC5746
Track not present in AccurateRip database
Copy OK
Track 7
Filename D:\zzz\07 - Trio (75,2).wav
Pre-gap length 0:00:07.00
Peak level 70.9 %
Extraction speed 7.6 X
Track quality 99.9 %
Test CRC EC96EEDC
Copy CRC EC96EEDC
Track not present in AccurateRip database
Copy OK
Track 8
Filename D:\zzz\08 - Duo (75,4).wav
Pre-gap length 0:00:07.00
Peak level 94.8 %
Extraction speed 7.9 X
Track quality 99.9 %
Test CRC CE42B95F
Copy CRC CE42B95F
Track not present in AccurateRip database
Copy OK
Track 9
Filename D:\zzz\09 - ReSampled.wav
Pre-gap length 0:00:07.00
Peak level 96.6 %
Extraction speed 7.2 X
Track quality 99.9 %
Test CRC D0F397AE
Copy CRC D0F397AE
Track not present in AccurateRip database
Copy OK
Track 10
Filename D:\zzz\10 - Where.wav
Pre-gap length 0:00:07.00
Peak level 79.9 %
Extraction speed 8.1 X
Track quality 100.0 %
Test CRC 030AC5E8
Copy CRC 030AC5E8
Track not present in AccurateRip database
Copy OK
Track 11
Filename D:\zzz\11 - Where Ever.wav
Pre-gap length 0:00:07.00
Peak level 55.3 %
Extraction speed 8.5 X
Track quality 100.0 %
Test CRC 3E2A12E4
Copy CRC 3E2A12E4
Track not present in AccurateRip database
Copy OK
Track 12
Filename D:\zzz\12 - Recorded Shape.wav
Pre-gap length 0:00:07.00
Peak level 50.1 %
Extraction speed 8.9 X
Track quality 100.0 %
Test CRC A0AD54E1
Copy CRC A0AD54E1
Track not present in AccurateRip database
Copy OK
Track 13
Filename D:\zzz\13 - The Cart, The Gate, The Egg And The Horse.wav
Pre-gap length 0:00:07.00
Peak level 62.6 %
Extraction speed 8.2 X
Track quality 100.0 %
Test CRC AB95B08D
Copy CRC AB95B08D
Track not present in AccurateRip database
Copy OK
Track 14
Filename D:\zzz\14 - Deserted Quiet.wav
Pre-gap length 0:00:07.00
Peak level 64.8 %
Extraction speed 9.2 X
Track quality 100.0 %
Test CRC 8DD297DA
Copy CRC 8DD297DA
Track not present in AccurateRip database
Copy OK
None of the tracks are present in the AccurateRip database
No errors occurred
End of status report
==== Log checksum AA81E2B871DFFE631197BB0ACE32EFBB38F549F1B7380B6E25E6A1365F9DADC6 ====
 
CD2
Exact Audio Copy V1.0 beta 3 from 29. August 2011
EAC extraction logfile from 3. November 2014, 22:49
Lysis & AustraLysis Electroband / LysisLives: Resounding In The Mirror CD2
Used drive : PIONEER DVD-RW DVR-115D Adapter: 0 ID: 0
Read mode : Secure
Utilize accurate stream : Yes
Defeat audio cache : Yes
Make use of C2 pointers : No
Read offset correction : 48
Overread into Lead-In and Lead-Out : No
Fill up missing offset samples with silence : Yes
Delete leading and trailing silent blocks : No
Null samples used in CRC calculations : Yes
Used interface : Installed external ASPI interface
Gap handling : Appended to previous track
Used output format : User Defined Encoder
Selected bitrate : 768 kBit/s
Quality : High
Add ID3 tag : No
Command line compressor : C:\Program Files\Exact Audio Copy\Flac\flac.exe
Additional command line options : -6 -V -T "ARTIST=%artist%" -T "TITLE=%title%" -T "ALBUM=%albumtitle%" -T "DATE=%year%" -T "TRACKNUMBER=%tracknr%" -T "GENRE=%genre%" -T "COMMENT=%comment%" -T "BAND=%albuminterpret%" -T "COMPOSER=%composer%" %haslyrics%--tag-from-file=LYRICS="%lyricsfile%"%haslyrics% -T "DISCNUMBER=%cdnumber%" -T "TOTALDISCS=%totalcds%" -T "TOTALTRACKS=%numtracks%" %hascover%--picture="%coverfile%"%hascover% %source% -o %dest%
TOC of the extracted CD
Track | Start | Length | Start sector | End sector
---------------------------------------------------------
1 | 0:00.00 | 6:38.23 | 0 | 29872
2 | 6:38.23 | 8:12.41 | 29873 | 66813
3 | 14:50.64 | 4:33.67 | 66814 | 87355
4 | 19:24.56 | 4:51.26 | 87356 | 109206
5 | 24:16.07 | 4:29.19 | 109207 | 129400
6 | 28:45.26 | 2:52.41 | 129401 | 142341
7 | 31:37.67 | 19:48.38 | 142342 | 231479
8 | 51:26.30 | 12:12.45 | 231480 | 286424
9 | 63:39.00 | 13:59.37 | 286425 | 349386
Track 1
Filename D:\zzz\01 - Lucent Harmonic.wav
Pre-gap length 0:00:02.00
Peak level 96.6 %
Extraction speed 5.1 X
Track quality 100.0 %
Test CRC 7E0497BD
Copy CRC 7E0497BD
Track not present in AccurateRip database
Copy OK
Track 2
Filename D:\zzz\02 - Mousse.wav
Pre-gap length 0:00:07.00
Peak level 88.8 %
Extraction speed 6.0 X
Track quality 100.0 %
Test CRC 474D98D8
Copy CRC 474D98D8
Track not present in AccurateRip database
Copy OK
Track 3
Filename D:\zzz\03 - MSP (More Sensory Perception).wav
Pre-gap length 0:00:07.00
Peak level 75.2 %
Extraction speed 5.5 X
Track quality 99.9 %
Test CRC 129966AB
Copy CRC 129966AB
Track not present in AccurateRip database
Copy OK
Track 4
Filename D:\zzz\04 - Underworld.wav
Pre-gap length 0:00:07.00
Peak level 88.9 %
Extraction speed 6.6 X
Track quality 100.0 %
Test CRC 9679DA9E
Copy CRC 9679DA9E
Track not present in AccurateRip database
Copy OK
Track 5
Filename D:\zzz\05 - ReSiling Harmonies.wav
Pre-gap length 0:00:07.00
Peak level 86.0 %
Extraction speed 6.1 X
Track quality 99.9 %
Test CRC 6DAF91C0
Copy CRC 6DAF91C0
Track not present in AccurateRip database
Copy OK
Track 6
Filename D:\zzz\06 - The Engine.wav
Pre-gap length 0:00:07.00
Peak level 77.3 %
Extraction speed 6.7 X
Track quality 100.0 %
Test CRC 14E971A8
Copy CRC 14E971A8
Track not present in AccurateRip database
Copy OK
Track 7
Filename D:\zzz\07 - Destructures 6 Part 1.wav
Pre-gap length 0:00:07.00
Peak level 90.3 %
Extraction speed 8.6 X
Track quality 100.0 %
Test CRC 1C9D0A6E
Copy CRC 1C9D0A6E
Track not present in AccurateRip database
Copy OK
Track 8
Filename D:\zzz\08 - Destructures 6 Part 2.wav
Pre-gap length 0:00:07.00
Peak level 91.7 %
Extraction speed 9.4 X
Track quality 100.0 %
Test CRC 4C143A0F
Copy CRC 4C143A0F
Track not present in AccurateRip database
Copy OK
Track 9
Filename D:\zzz\09 - Quartet (76,11).wav
Pre-gap length 0:00:06.74
Peak level 86.4 %
Extraction speed 10.1 X
Track quality 100.0 %
Test CRC 320692AA
Copy CRC 320692AA
Track not present in AccurateRip database
Copy OK
None of the tracks are present in the AccurateRip database
No errors occurred
End of status report
==== Log checksum E36EA4B7BB11817509C856A69346D22801503E9A80A3E1E4614A98044C8F42C4 ====
 
Содержание индексной карты (.CUE)
 
CD1
REM GENRE "Avant-Garde Jazz"
REM DATE 2000
REM DISCID D311960E
REM COMMENT "ExactAudioCopy v1.0b3"
PERFORMER "Lysis & AustraLysis Electroband"
TITLE "LysisLives: Resounding In The Mirror CD1"
FILE "01 - Wheeling (69,2).wav" WAVE
TRACK 01 AUDIO
TITLE "Wheeling (69/2)"
PERFORMER "Lysis"
INDEX 01 00:00:00
TRACK 02 AUDIO
TITLE "Trio Improvisation 1"
PERFORMER "Lysis"
INDEX 00 07:11:52
FILE "02 - Trio Improvisation 1.wav" WAVE
INDEX 01 00:00:00
TRACK 03 AUDIO
TITLE "Electric Suite (73/1; 75/3)"
PERFORMER "Lysis"
INDEX 00 05:11:04
FILE "03 - Electric Suite (73,1; 75,3).wav" WAVE
INDEX 01 00:00:00
TRACK 04 AUDIO
TITLE "Piano Improvisation 1"
PERFORMER "Lysis"
INDEX 00 11:52:58
FILE "04 - Piano Improvisation 1.wav" WAVE
INDEX 01 00:00:00
TRACK 05 AUDIO
TITLE "Threely (69/1)"
PERFORMER "Lysis"
INDEX 00 01:42:02
FILE "05 - Threely (69,1).wav" WAVE
INDEX 01 00:00:00
TRACK 06 AUDIO
TITLE "Trio Improvisation 2"
PERFORMER "Lysis"
INDEX 00 07:23:70
FILE "06 - Trio Improvisation 2.wav" WAVE
INDEX 01 00:00:00
TRACK 07 AUDIO
TITLE "Trio (75/2)"
PERFORMER "Lysis"
INDEX 00 03:19:49
FILE "07 - Trio (75,2).wav" WAVE
INDEX 01 00:00:00
TRACK 08 AUDIO
TITLE "Duo (75/4)"
PERFORMER "Lysis"
INDEX 00 08:05:74
FILE "08 - Duo (75,4).wav" WAVE
INDEX 01 00:00:00
TRACK 09 AUDIO
TITLE "ReSampled"
PERFORMER "AustraLysis Electroband"
INDEX 00 07:27:35
FILE "09 - ReSampled.wav" WAVE
INDEX 01 00:00:00
TRACK 10 AUDIO
TITLE "Where"
PERFORMER "AustraLysis Electroband"
INDEX 00 03:31:32
FILE "10 - Where.wav" WAVE
INDEX 01 00:00:00
TRACK 11 AUDIO
TITLE "Where Ever?"
PERFORMER "AustraLysis Electroband"
INDEX 00 02:52:35
FILE "11 - Where Ever.wav" WAVE
INDEX 01 00:00:00
TRACK 12 AUDIO
TITLE "Recorded Shape"
PERFORMER "AustraLysis Electroband"
INDEX 00 03:39:59
FILE "12 - Recorded Shape.wav" WAVE
INDEX 01 00:00:00
TRACK 13 AUDIO
TITLE "The Cart, The Gate, The Egg And The Horse"
PERFORMER "AustraLysis Electroband"
INDEX 00 04:20:72
FILE "13 - The Cart, The Gate, The Egg And The Horse.wav" WAVE
INDEX 01 00:00:00
TRACK 14 AUDIO
TITLE "Deserted Quiet"
PERFORMER "AustraLysis Electroband"
INDEX 00 02:17:50
FILE "14 - Deserted Quiet.wav" WAVE
INDEX 01 00:00:00
 
CD2
REM GENRE "Avant-Garde Jazz"
REM DATE 2000
REM DISCID 86123209
REM COMMENT "ExactAudioCopy v1.0b3"
PERFORMER "Lysis & AustraLysis Electroband"
TITLE "LysisLives: Resounding In The Mirror CD2"
FILE "01 - Lucent Harmonic.wav" WAVE
TRACK 01 AUDIO
TITLE "Lucent Harmonic"
PERFORMER "AustraLysis Electroband"
INDEX 01 00:00:00
TRACK 02 AUDIO
TITLE "Mousse"
PERFORMER "AustraLysis Electroband"
INDEX 00 06:31:23
FILE "02 - Mousse.wav" WAVE
INDEX 01 00:00:00
TRACK 03 AUDIO
TITLE "MSP (More Sensory Perception)"
PERFORMER "AustraLysis Electroband"
INDEX 00 08:05:41
FILE "03 - MSP (More Sensory Perception).wav" WAVE
INDEX 01 00:00:00
TRACK 04 AUDIO
TITLE "Underworld"
PERFORMER "AustraLysis Electroband"
INDEX 00 04:26:67
FILE "04 - Underworld.wav" WAVE
INDEX 01 00:00:00
TRACK 05 AUDIO
TITLE "ReSiling Harmonies"
PERFORMER "AustraLysis Electroband"
INDEX 00 04:44:26
FILE "05 - ReSiling Harmonies.wav" WAVE
INDEX 01 00:00:00
TRACK 06 AUDIO
TITLE "The Engine"
PERFORMER "AustraLysis Electroband"
INDEX 00 04:22:19
FILE "06 - The Engine.wav" WAVE
INDEX 01 00:00:00
TRACK 07 AUDIO
TITLE "Destructures 6 Part 1"
PERFORMER "Lysis Plus With Kenny Wheeler"
INDEX 00 02:45:41
FILE "07 - Destructures 6 Part 1.wav" WAVE
INDEX 01 00:00:00
TRACK 08 AUDIO
TITLE "Destructures 6 Part 2"
PERFORMER "Lysis Plus With Kenny Wheeler"
INDEX 00 19:41:38
FILE "08 - Destructures 6 Part 2.wav" WAVE
INDEX 01 00:00:00
TRACK 09 AUDIO
TITLE "Quartet (76/11)"
PERFORMER "Lysis Plus With Kenny Wheeler"
INDEX 00 12:05:46
FILE "09 - Quartet (76,11).wav" WAVE
INDEX 01 00:00:00
 
Лог проверки качества
d:\>d:\aucdtect -d/-m0 d:\zzz\*.wav
auCDtect: CD records authenticity detector, version 0.8.2
Copyright (c) 2004 Oleg Berngardt. All rights reserved.
Copyright (c) 2004 Alexander Djourik. All rights reserved.
------------------------------------------------------------
Processing file: [01. Lucent Harmonic.wav]
------------------------------------------------------------
This track looks like CDDA with probability 100%
------------------------------------------------------------
Processing file: [01. Wheeling (69-2).wav]
------------------------------------------------------------
This track looks like CDDA with probability 100%
------------------------------------------------------------
Processing file: [02. Mousse.wav]
------------------------------------------------------------
This track looks like CDDA with probability 99%
------------------------------------------------------------
Processing file: [02. Trio Improvisation 1.wav]
------------------------------------------------------------
This track looks like CDDA with probability 100%
------------------------------------------------------------
Processing file: [03. Electric Suite (73-1; 75-3).wav]
------------------------------------------------------------
This track looks like CDDA with probability 100%
------------------------------------------------------------
Processing file: [03. MSP (More Sensory Perception).wav]
------------------------------------------------------------
This track looks like CDDA with probability 100%
------------------------------------------------------------
Processing file: [04. Piano Improvisation 1.wav]
------------------------------------------------------------
This track looks like CDDA with probability 100%
------------------------------------------------------------
Processing file: [04. Underworld.wav]
------------------------------------------------------------
This track looks like CDDA with probability 100%
------------------------------------------------------------
Processing file: [05. ReSiling Harmonies.wav]
------------------------------------------------------------
This track looks like CDDA with probability 100%
------------------------------------------------------------
Processing file: [05. Threely (69-1).wav]
------------------------------------------------------------
This track looks like CDDA with probability 100%
------------------------------------------------------------
Processing file: [06. The Engine.wav]
------------------------------------------------------------
This track looks like CDDA with probability 100%
------------------------------------------------------------
Processing file: [06. Trio Improvisation 2.wav]
------------------------------------------------------------
This track looks like CDDA with probability 100%
------------------------------------------------------------
Processing file: [07. Destructures 6 Part 1.wav]
------------------------------------------------------------
This track looks like CDDA with probability 100%
------------------------------------------------------------
Processing file: [07. Trio (75-2).wav]
------------------------------------------------------------
This track looks like CDDA with probability 100%
------------------------------------------------------------
Processing file: [08. Destructures 6 Part 2.wav]
------------------------------------------------------------
This track looks like CDDA with probability 100%
------------------------------------------------------------
Processing file: [08. Duo (75-4).wav]
------------------------------------------------------------
This track looks like CDDA with probability 100%
------------------------------------------------------------
Processing file: [09. Quartet (76-11).wav]
------------------------------------------------------------
This track looks like CDDA with probability 100%
------------------------------------------------------------
Processing file: [09. ReSampled.wav]
------------------------------------------------------------
This track looks like CDDA with probability 100%
------------------------------------------------------------
Processing file: [10. Where.wav]
------------------------------------------------------------
This track looks like CDDA with probability 99%
------------------------------------------------------------
Processing file: [11. Where Ever.wav]
------------------------------------------------------------
This track looks like CDDA with probability 100%
------------------------------------------------------------
Processing file: [12. Recorded Shape.wav]
------------------------------------------------------------
This track looks like CDDA with probability 100%
------------------------------------------------------------
Processing file: [13. The Cart, The Gate, The Egg And The Horse.wav]
------------------------------------------------------------
This track looks like CDDA with probability 100%
------------------------------------------------------------
Processing file: [14. Deserted Quiet.wav]
------------------------------------------------------------
This track looks like CDDA with probability 100%
------------------------------------------------------------
Final Conclusion:
------------------------------------------------------------
These tracks looks like CDDA with probability 100%
Доп. информация:
 
Album Info
CD1 presents the whole of LYSIS Live (8 tracks, originally on Mosaic GCM 762, first released 1976), followed by 6 tracks of the Electroband (first released 2000 on this album).
CD2 presents an additional 6 tracks of the Electroband, followed by the complete LYSIS plus with Ken Wheeler (3 long tracks, originally on Mosaic GCM 791, first released 1979).
Mosaic was one of the pioneering independent jazz and improvised music labels in the UK in the 1970s, created by composer/leader Graham Collier. Roger Dean was the keyboard player in Graham Collier Music from 1974-1988, and continues to work occasionally with Collier, most recently recording The Third Colour (ASC CD28) with his international group, The Jazz Ensemble (1997).
Compositions by Roger Dean (CD1.1-CD1.13, CD2.1-CD2.3, CD2.5-CD2.9), Greg White (CD1.14, CD2.4)
CD1.1-CD1.8 recorded live, London, 24th September 1975 except CD1.8 which was a studio recording, London, 28th September 1975
CD1.9-CD1.14 & CD2.1-CD2.6 recorded Tallong, NSW, Australia, January 28 and 29, 2000
CD2.7-CD2.9 recorded March 1979 by Bob Auger
The album was mixed and (re)mastered by Greg White.
Liner notes: Roger Dean
 
Состав
Chris Laurence: bass (CD1.1-CD1.7)
Ashley Brown: percussion (CD1.1-CD1.7, CD2.7-CD2.9)
Roger Dean: piano, electric piano (CD1.1-CD1.8), keyboards / computer interaction and programming (CD1.9-CD1.14, CD2.1-CD2.6), piano / double basses 1-3 / vibraphone / xylophone (CD2.7-CD2.9)
John Wallace: trumpet (CD1.8, CD2.7-CD2.9)
Sandy Evans: saxophones, wind controller, computer interaction (CD1.9-CD1.14, CD2.1-CD2.6)
Greg White: sound manipulation, computer interaction and programming (CD1.9-CD1.14, CD2.1-CD2.6)
Hazel Smith: violins (CD2.7, CD2.8)
Geoff Warren: flute / saxophone (CD2.7-CD2.9)
Ken Wheeler: trumpet and flugelhorn (CD2.7-CD2.9)
Marc Meggido: bass (CD2.9)
По всем вопросам пишите личное сообщение пользователю M0p94ok.
06:37
171
Нет комментариев. Ваш будет первым!