Вы используете незарегистрированную версию компонента "Вкладки"!

Поиск

(Avant-Garde Jazz, Contemporary Jazz) [CD] Perry Robinson, Ed Schuller, Ernst Bier - Children`s Song - 2005, FLAC (tracks+.cue), lossless

(Avant-Garde Jazz, Contemporary Jazz) [CD] Perry Robinson, Ed Schuller, Ernst Bier - Children`s Song - 2005, FLAC (tracks+.cue), lossless
Треклист:
Perry Robinson, Ed Schuller, Ernst Bier / Children`s Song
Жанр: Avant-Garde Jazz, Contemporary Jazz
Носитель: CD
Страна-производитель диска (релиза): Germany
Год издания: 2005
Издатель (лейбл): Konnex Records
Номер по каталогу: KCD 5149
Аудиокодек: FLAC (*.flac)
Тип рипа: tracks+.cue
Битрейт аудио: lossless
Продолжительность: 62:59
Источник (релизер): cd
Наличие сканов в содержимом раздачи: нет
Треклист:
1. The Call 5:12
2. The Feud 5:56
3. Overtonal 12:11
4. Children's Song 8:23
5. Soundpiece 13:53
6. Petite Fleur 4:45
7. In Time Out 7:39
8. Bows And Arrows 4:58
 
Лог создания рипа
Exact Audio Copy V1.0 beta 3 from 29. August 2011
EAC extraction logfile from 10. January 2015, 23:37
Perry Robinson, Ed Schuller, Ernst Bier / Children`s Song
Used drive : ASUS DRW-24F1ST a Adapter: 0 ID: 0
Read mode : Secure
Utilize accurate stream : Yes
Defeat audio cache : Yes
Make use of C2 pointers : No
Read offset correction : 6
Overread into Lead-In and Lead-Out : No
Fill up missing offset samples with silence : Yes
Delete leading and trailing silent blocks : No
Null samples used in CRC calculations : Yes
Used interface : Native Win32 interface for Win NT & 2000
Gap handling : Appended to previous track
Used output format : User Defined Encoder
Selected bitrate : 320 kBit/s
Quality : High
Add ID3 tag : No
Command line compressor : D:\Programs\Exact Audio Copy\Flac\flac.exe
Additional command line options : -V -8 -T "Genre=%genre%" -T "Artist=%artist%" -T "Title=%title%" -T "Album=%albumtitle%" -T "Date=%year%" -T "Tracknumber=%tracknr%" -T "Comment=%comment%" %source%
TOC of the extracted CD
Track | Start | Length | Start sector | End sector
---------------------------------------------------------
1 | 0:00.00 | 5:12.11 | 0 | 23410
2 | 5:12.11 | 5:56.11 | 23411 | 50121
3 | 11:08.22 | 12:11.24 | 50122 | 104970
4 | 23:19.46 | 8:23.10 | 104971 | 142705
5 | 31:42.56 | 13:53.65 | 142706 | 205245
6 | 45:36.46 | 4:45.22 | 205246 | 226642
7 | 50:21.68 | 7:39.10 | 226643 | 261077
8 | 58:01.03 | 4:58.38 | 261078 | 283465
Track 1
Filename D:\EAC\01 The Call.wav
Pre-gap length 0:00:02.00
Peak level 96.6 %
Extraction speed 4.4 X
Track quality 100.0 %
Test CRC 82B6B2DE
Copy CRC 82B6B2DE
Copy OK
Track 2
Filename D:\EAC\02 The Feud.wav
Peak level 96.6 %
Extraction speed 5.1 X
Track quality 100.0 %
Test CRC 05B56748
Copy CRC 05B56748
Copy OK
Track 3
Filename D:\EAC\03 Overtonal.wav
Pre-gap length 0:00:00.20
Peak level 96.6 %
Extraction speed 6.3 X
Track quality 100.0 %
Test CRC 83D194B1
Copy CRC 83D194B1
Copy OK
Track 4
Filename D:\EAC\04 Children's Song.wav
Pre-gap length 0:00:00.20
Peak level 96.6 %
Extraction speed 7.0 X
Track quality 100.0 %
Test CRC 6254A2E2
Copy CRC 6254A2E2
Copy OK
Track 5
Filename D:\EAC\05 Soundpiece.wav
Pre-gap length 0:00:00.20
Peak level 96.6 %
Extraction speed 8.0 X
Track quality 100.0 %
Test CRC B739E554
Copy CRC B739E554
Copy OK
Track 6
Filename D:\EAC\06 Petite Fleur.wav
Peak level 96.6 %
Extraction speed 7.9 X
Track quality 100.0 %
Test CRC 3F6AB0BC
Copy CRC 3F6AB0BC
Copy OK
Track 7
Filename D:\EAC\07 In Time Out.wav
Pre-gap length 0:00:03.74
Peak level 96.6 %
Extraction speed 8.0 X
Track quality 99.9 %
Test CRC 5C777D69
Copy CRC 5C777D69
Copy OK
Track 8
Filename D:\EAC\08 Bows and Arrows.wav
Pre-gap length 0:00:00.20
Peak level 96.6 %
Extraction speed 7.7 X
Track quality 99.9 %
Test CRC 6E9ED911
Copy CRC 6E9ED911
Copy OK
No errors occurred
End of status report
==== Log checksum 225BA3972C1B86DCF9B23159F7236B774BA982C758A1E6CE3F9F50F2280143B4 ====
 
Содержание индексной карты (.CUE)
REM GENRE Jazz
REM DATE 2005
REM DISCID 590EC308
REM COMMENT "ExactAudioCopy v1.0b3"
PERFORMER "Perry Robinson, Ed Schuller, Ernst Bier"
TITLE "Children`s Song"
FILE "01 The Call.wav" WAVE
TRACK 01 AUDIO
TITLE "The Call"
PERFORMER "Perry Robinson, Ed Schuller, Ernst Bier"
FLAGS DCP
INDEX 01 00:00:00
FILE "02 The Feud.wav" WAVE
TRACK 02 AUDIO
TITLE "The Feud"
PERFORMER "Perry Robinson, Ed Schuller, Ernst Bier"
FLAGS DCP
INDEX 01 00:00:00
TRACK 03 AUDIO
TITLE "Overtonal"
PERFORMER "Perry Robinson, Ed Schuller, Ernst Bier"
FLAGS DCP
INDEX 00 05:55:66
FILE "03 Overtonal.wav" WAVE
INDEX 01 00:00:00
TRACK 04 AUDIO
TITLE "Children's Song"
PERFORMER "Perry Robinson, Ed Schuller, Ernst Bier"
FLAGS DCP
INDEX 00 12:11:04
FILE "04 Children's Song.wav" WAVE
INDEX 01 00:00:00
TRACK 05 AUDIO
TITLE "Soundpiece"
PERFORMER "Perry Robinson, Ed Schuller, Ernst Bier"
FLAGS DCP
INDEX 00 08:22:65
FILE "05 Soundpiece.wav" WAVE
INDEX 01 00:00:00
FILE "06 Petite Fleur.wav" WAVE
TRACK 06 AUDIO
TITLE "Petite Fleur"
PERFORMER "Perry Robinson, Ed Schuller, Ernst Bier"
FLAGS DCP
INDEX 01 00:00:00
TRACK 07 AUDIO
TITLE "In Time Out"
PERFORMER "Perry Robinson, Ed Schuller, Ernst Bier"
FLAGS DCP
INDEX 00 04:41:23
FILE "07 In Time Out.wav" WAVE
INDEX 01 00:00:00
TRACK 08 AUDIO
TITLE "Bows and Arrows"
PERFORMER "Perry Robinson, Ed Schuller, Ernst Bier"
FLAGS DCP
INDEX 00 07:38:65
FILE "08 Bows and Arrows.wav" WAVE
INDEX 01 00:00:00
Доп. информация: Recorded live at the LOFT / Köln December 7th 1990.
 
Об альбоме (сборнике)
In mathematics, there are three basic types of triangles: scalene (no congruent sides), isosceles (two congruent sides), and equilateral (all sides congruent). If the trio of clarinetist Perry Robinson, bassist Ed Schuller, and drummer Ernst Bier became the subject of a mathematical paper, they would create a new type of triangle, one whose congruency of sides is not fixed but instead changes over time.
Recorded live in 1990 in Cologne, Germany, this performance demonstrates how jazz is often played without distinct leaders. Throughout the material—three tunes by Robinson, including "The Call, two by Schuller, one collective improvisation, and one cover each from Sidney Bechet and Jake Holmes—the emphasis changes. Robinson, whom one would assume by default is the lead voice, gets subsumed by forceful rhythms coming from either Schuller or Bier, or both. The foundational role of the bass can be subverted by direct communication between Robinson and Bier. The drummer's participation can be dominant or distant.
This makes for an album of fascinating textures and many possibilities. On a strictly "free" record, this would be a minimum requirement. But since the trio is playing written material, the dynamic shifts from acute to right to obtuse to equiangular make every tune seem like several, a refreshing departure from the head-solos-head or leader-rhythm section formats that can suck the life out of much jazz. Add in Robinson's mischievious personality and unique sound on the instrument—modern clarinet would be nowhere without him—and you have one math problem that both children and adults can enjoy.
 
Состав
Ernst Bier Composer, Drums, Percussion, Primary Artist
Perry Robinson Clarinet, Composer, Primary Artist
Ed Schuller Bass
По всем вопросам пишите личное сообщение пользователю M0p94ok.
08:13
138
Нет комментариев. Ваш будет первым!