Вы используете незарегистрированную версию компонента "Вкладки"!

Поиск

(Avant-Garde Jazz, Contemporary Jazz) [CD] John Carter, Bobby Bradford, Horace Tapscott - West Coast Hot - 1969 (1991), FLAC (tracks+.cue), lossless

(Avant-Garde Jazz, Contemporary Jazz) [CD] John Carter, Bobby Bradford, Horace Tapscott - West Coast Hot - 1969 (1991), FLAC (tracks+.cue), lossless
Треклист:
John Carter, Bobby Bradford, Horace Tapscott - West Coast Hot
Жанр: Avant-Garde Jazz, Contemporary Jazz
Носитель: CD
Страна-производитель диска: США
Год издания: 1991
Издатель (лейбл): Novus/RCA/BMG
Номер по каталогу: 3107-2-N
Аудиокодек: FLAC (*.flac)
Тип рипа: tracks+.cue
Битрейт аудио: lossless
Продолжительность: 70:52
Источник (релизер): stoichie (what)
Наличие сканов в содержимом раздачи: да
Треклист:
John Carter & Bobby Bradford Quartet
01. Call to the Festival (Carter) - 9:11
02. The Second Set (Carter) - 8:55
03. Woman (Bradford) - 7:34
04. Abstractions for Three Lovers (Carter) - 6:43
Horace Tapscott Quintet
05. The Giant is Awakened (Tapscott) - 17:20
06. For Fats (Blythe) - 2:20
07. The Dark Tree (Tapscott) - 6:58
08. Niger's Theme (Tapscott) - 11:51
 
Лог создания рипа
Exact Audio Copy V1.0 beta 3 from 29. August 2011
EAC extraction logfile from 25. January 2014, 1:35
Various Artists / West Coast Hot
Used drive : HL-DT-STDVDRAM GT51N Adapter: 0 ID: 1
Read mode : Secure
Utilize accurate stream : Yes
Defeat audio cache : Yes
Make use of C2 pointers : No
Read offset correction : 103
Overread into Lead-In and Lead-Out : No
Fill up missing offset samples with silence : Yes
Delete leading and trailing silent blocks : No
Null samples used in CRC calculations : Yes
Used interface : Native Win32 interface for Win NT & 2000
Gap handling : Appended to previous track
Used output format : User Defined Encoder
Selected bitrate : 1024 kBit/s
Quality : High
Add ID3 tag : No
Command line compressor : C:\Program Files (x86)\FLAC\flac.exe
Additional command line options : -8 -V -T "ARTIST=%artist%" -T "TITLE=%title%" -T "ALBUM=%albumtitle%" -T "DATE=%year%" -T "TRACKNUMBER=%tracknr%" -T "GENRE=%genre%" -T "PERFORMER=%albuminterpret%" -T "COMPOSER=%composer%" %haslyrics%--tag-from-file=LYRICS="%lyricsfile%"%haslyrics% -T "ALBUMARTIST=%albumartist%" -T "DISCNUMBER=%cdnumber%" -T "TOTALDISCS=%totalcds%" -T "TOTALTRACKS=%numtracks%" -T "COMMENT=%comment%" %source% -o %dest%
TOC of the extracted CD
Track | Start | Length | Start sector | End sector
---------------------------------------------------------
1 | 0:00.37 | 9:10.48 | 37 | 41334
2 | 9:11.10 | 8:54.52 | 41335 | 81436
3 | 18:05.62 | 7:33.50 | 81437 | 115461
4 | 25:39.37 | 6:42.60 | 115462 | 145671
5 | 32:22.22 | 17:19.38 | 145672 | 223634
6 | 49:41.60 | 2:20.30 | 223635 | 234164
7 | 52:02.15 | 6:58.12 | 234165 | 265526
8 | 59:00.27 | 11:50.38 | 265527 | 318814
Track 1
Filename C:\EAC Rips\Various Artists - West Coast Hot (1991) {3107-2-N}\01 - John Carter & Bobby Bradford Quartet - Call to the Festival.wav
Pre-gap length 0:00:02.49
Peak level 48.6 %
Extraction speed 3.4 X
Track quality 100.0 %
Test CRC 4C70C8BC
Copy CRC 4C70C8BC
Accurately ripped (confidence 1) [F170C788] (AR v2)
Copy OK
Track 2
Filename C:\EAC Rips\Various Artists - West Coast Hot (1991) {3107-2-N}\02 - John Carter & Bobby Bradford Quartet - The Second Set.wav
Pre-gap length 0:00:03.36
Peak level 49.5 %
Extraction speed 4.0 X
Track quality 100.0 %
Test CRC B411C397
Copy CRC B411C397
Accurately ripped (confidence 1) [855DF7DB] (AR v2)
Copy OK
Track 3
Filename C:\EAC Rips\Various Artists - West Coast Hot (1991) {3107-2-N}\03 - John Carter & Bobby Bradford Quartet - Woman.wav
Pre-gap length 0:00:06.09
Peak level 56.9 %
Extraction speed 4.4 X
Track quality 100.0 %
Test CRC 95FF9273
Copy CRC 95FF9273
Accurately ripped (confidence 1) [91D94AF3] (AR v2)
Copy OK
Track 4
Filename C:\EAC Rips\Various Artists - West Coast Hot (1991) {3107-2-N}\04 - John Carter & Bobby Bradford Quartet - Abstractions for Three Lovers.wav
Pre-gap length 0:00:03.82
Peak level 58.2 %
Extraction speed 4.8 X
Track quality 100.0 %
Test CRC 97E04F21
Copy CRC 97E04F21
Accurately ripped (confidence 1) [39ECC59C] (AR v2)
Copy OK
Track 5
Filename C:\EAC Rips\Various Artists - West Coast Hot (1991) {3107-2-N}\05 - Horace Tapscott Quintet - The Giant is Awakened.wav
Pre-gap length 0:00:04.06
Peak level 49.4 %
Extraction speed 5.3 X
Track quality 99.9 %
Test CRC 92924005
Copy CRC 92924005
Accurately ripped (confidence 1) [0F1C86FB] (AR v2)
Copy OK
Track 6
Filename C:\EAC Rips\Various Artists - West Coast Hot (1991) {3107-2-N}\06 - Horace Tapscott Quintet - For Fats.wav
Pre-gap length 0:00:03.66
Peak level 40.9 %
Extraction speed 3.5 X
Track quality 99.9 %
Test CRC FF55E20B
Copy CRC FF55E20B
Accurately ripped (confidence 1) [F0010ECF] (AR v2)
Copy OK
Track 7
Filename C:\EAC Rips\Various Artists - West Coast Hot (1991) {3107-2-N}\07 - Horace Tapscott Quintet - The Dark Tree.wav
Pre-gap length 0:00:03.13
Peak level 50.2 %
Extraction speed 6.0 X
Track quality 100.0 %
Test CRC DCCA0DCA
Copy CRC DCCA0DCA
Accurately ripped (confidence 1) [3C15FF6E] (AR v2)
Copy OK
Track 8
Filename C:\EAC Rips\Various Artists - West Coast Hot (1991) {3107-2-N}\08 - Horace Tapscott Quintet - Niger's Theme.wav
Pre-gap length 0:00:03.53
Peak level 46.1 %
Extraction speed 2.7 X
Track quality 99.9 %
Test CRC 7601AA01
Copy CRC 7601AA01
Cannot be verified as accurate (confidence 1) [2B5E6F41], AccurateRip returned [990FD284] (AR v2)
Copy OK
7 track(s) accurately ripped
1 track(s) could not be verified as accurate
Some tracks could not be verified as accurate
No errors occurred
End of status report
==== Log checksum 16091D524CC78E30214717526417727DAEA346E748860340C0D0CA4A89D73DEC ====
 
Содержание индексной карты (.CUE)
REM GENRE Jazz
REM DATE 1969
REM DISCID 6A109A08
REM COMMENT "ExactAudioCopy v1.0b3"
PERFORMER "John Carter, Bobby Bradford, Horace Tapscott"
TITLE "West Coast Hot"
FILE "01 - Call to the Festival.wav" WAVE
TRACK 01 AUDIO
TITLE "Call to the Festival"
PERFORMER "John Carter, Bobby Bradford, Horace Tapscott"
PREGAP 00:00:37
INDEX 01 00:00:00
TRACK 02 AUDIO
TITLE "The Second Set"
PERFORMER "John Carter, Bobby Bradford, Horace Tapscott"
INDEX 00 09:07:21
FILE "02 - The Second Set.wav" WAVE
INDEX 01 00:00:00
TRACK 03 AUDIO
TITLE "Woman"
PERFORMER "John Carter, Bobby Bradford, Horace Tapscott"
INDEX 00 08:48:45
FILE "03 - Woman.wav" WAVE
INDEX 01 00:00:00
TRACK 04 AUDIO
TITLE "Abstractions for Three Lovers"
PERFORMER "John Carter, Bobby Bradford, Horace Tapscott"
INDEX 00 07:29:63
FILE "04 - Abstractions for Three Lovers.wav" WAVE
INDEX 01 00:00:00
TRACK 05 AUDIO
TITLE "The Giant is Awakened"
PERFORMER "John Carter, Bobby Bradford, Horace Tapscott"
INDEX 00 06:38:55
FILE "05 - The Giant is Awakened.wav" WAVE
INDEX 01 00:00:00
TRACK 06 AUDIO
TITLE "For Fats"
PERFORMER "John Carter, Bobby Bradford, Horace Tapscott"
INDEX 00 17:15:63
FILE "06 - For Fats.wav" WAVE
INDEX 01 00:00:00
TRACK 07 AUDIO
TITLE "The Dark Tree"
PERFORMER "John Carter, Bobby Bradford, Horace Tapscott"
INDEX 00 02:17:20
FILE "07 - The Dark Tree.wav" WAVE
INDEX 01 00:00:00
TRACK 08 AUDIO
TITLE "Niger's Theme"
PERFORMER "John Carter, Bobby Bradford, Horace Tapscott"
INDEX 00 06:54:47
FILE "08 - Niger's Theme.wav" WAVE
INDEX 01 00:00:00
 
Отчет CUETools
[CUETools log; Date: 21.07.2014 18:45:52; Version: 2.1.4]
Pregap length 00:00:37.
[CTDB TOCID: 7NRaUX12KDRX_4hs64fEblpNmhs-] found.
Track | CTDB Status
1 | (1/1) Accurately ripped
2 | (1/1) Accurately ripped
3 | (1/1) Accurately ripped
4 | (1/1) Accurately ripped
5 | (1/1) Accurately ripped
6 | (1/1) Accurately ripped
7 | (1/1) Accurately ripped
8 | (1/1) Accurately ripped
[AccurateRip ID: 0015c2a5-0090d51e-6a109a08] found.
Track [ CRC | V2 ] Status
01 [1bb0042b|f170c788] (0+2/2) Accurately ripped
02 [24919aec|855df7db] (0+2/2) Accurately ripped
03 [f630c82d|91d94af3] (0+2/2) Accurately ripped
04 [c0466525|39ecc59c] (0+2/2) Accurately ripped
05 [68268c2a|0f1c86fb] (0+3/3) Accurately ripped
06 [bbbdd391|f0010ecf] (0+3/3) Accurately ripped
07 [1f5cc5bd|3c15ff6e] (0+3/3) Accurately ripped
08 [595b3636|2b5e6f41] (0+2/2) Accurately ripped
Track Peak [ CRC32 ] [W/O NULL] [ LOG ]
-- 58,2 [59247E2F] [F3702FF4]
01 48,6 [4C70C8BC] [4FEA595B] CRC32
02 49,5 [B411C397] [F95A5A97] CRC32
03 56,9 [95FF9273] [6A109742] CRC32
04 58,2 [97E04F21] [E0323FC3] CRC32
05 49,4 [92924005] [FDB5110B] CRC32
06 40,9 [FF55E20B] [CBA25BA6] CRC32
07 50,2 [DCCA0DCA] [C29E9416] CRC32
08 46,1 [7601AA01] [A8A7B862] CRC32
 
Review by Scott Yanow
This very valuable release documents two important but underrated avant-garde units that were based in Los Angeles. Clarinetist John Carter (here also heard on tenor and alto) and trumpeter Bobby Bradford co-led bands for many years in virtual obscurity. With bassist Tom Williamson and drummer Buzz Freeman, they are both abstract and logical on four originals with Carter's passionate sounds contrasting, as usual, with Bradford's lyricism. The second half of this disc features L.A.'s great undiscovered legend, pianist Horace Tapscott. He is heard in superlative form on four tracks (including the 17-minute "The Giant Is Awakened") in a two-bass quintet also co-starring the young altoist Arthur Blythe.
 
Состав
John Carter & Bobby Bradford Quartet (#1-4):
John Carter - alto saxophone, tenor saxophone, clarinet
Bobby Bradford - trumpet
Tom Williamson - bass
Bruz Freeman - drums
Recorded in Los Angeles on January 3, 1969.
Previously released as LP with the title "Flight for Four" by Flying Dutchman label with one more track (Domino) not included in this compilation.
Horace Tapscott Quintet (#5-8):
Horace Tapscott - piano
Arthur Blythe - alto saxophone
David Bryant, Walter Savage, Jr. - bass
Everett Brown, Jr. - drums
Recorded in Los Angeles on April 1, 1969.
Previously released as LP titled "The Giant is Awakened" by Flying Dutchman label.
По всем вопросам пишите личное сообщение пользователю M0p94ok.
03:35
116
Нет комментариев. Ваш будет первым!