Вы используете незарегистрированную версию компонента "Вкладки"!

Поиск

(Avant-Garde, Free Improvisation, FMR) [CD] Max Johnson Trio (Kirk Knuffke, Ziv Ravitz) - Elevated Vegetation - 2012, FLAC (tracks+.cue), lossless

(Avant-Garde, Free Improvisation, FMR) [CD] Max Johnson Trio (Kirk Knuffke, Ziv Ravitz) - Elevated Vegetation - 2012, FLAC (tracks+.cue), lossless
Треклист:
Max Johnson Trio / Elevated Vegetation
Жанр: Avant-Garde, Free Improvisation, FMR
Носитель: CD
Страна-производитель диска: U.K.
Год издания: 2012
Издатель (лейбл): FMR Records
Номер по каталогу: FMRCD343-0812
Аудиокодек: FLAC (*.flac)
Тип рипа: tracks+.cue
Битрейт аудио: lossless
Продолжительность: 54:26
Источник (релизер): я
Наличие сканов в содержимом раздачи: да
Треклист:
1. Blue Willie 5:18
2. Money, Money, Money (Björn Ulvaeus / Benny Andersson) 9:38
3. The Chirps of Imaginary Birds 4:51
4. Crackdown 5:22
5. Kersey 6:49
6. Death Wish 6:14
7. Meta Analytical Procedures for Social Research (Kirk Knuffke) 4:19
8. Many Celebrations 4:57
9. Bali H’ai (Richard Rodgers) 6:59
All compositions by Max Johnson except where indicated.
Recorded at Wombat Recording Company, Brooklyn, N.Y. on February 20th, 2012.
Kirk Knuffke – Cornet
Max Johnson – Bass
Ziv Ravitz – Drums
 
Лог создания рипа
Exact Audio Copy V1.0 beta 3 from 29. August 2011
EAC extraction logfile from 25. June 2014, 8:33
Max Johnson Trio / Elevated Vegetation
Used drive : SlimtypeeNAU508 5 Adapter: 1 ID: 0
Read mode : Secure
Utilize accurate stream : Yes
Defeat audio cache : Yes
Make use of C2 pointers : No
Read offset correction : 6
Overread into Lead-In and Lead-Out : No
Fill up missing offset samples with silence : Yes
Delete leading and trailing silent blocks : No
Null samples used in CRC calculations : Yes
Used interface : Native Win32 interface for Win NT & 2000
Gap handling : Appended to previous track
Used output format : User Defined Encoder
Selected bitrate : 768 kBit/s
Quality : High
Add ID3 tag : No
Command line compressor : C:\Program Files (x86)\Exact Audio Copy\Flac\flac.exe
Additional command line options : -8 -V -T "ARTIST=%artist%" -T "TITLE=%title%" -T "ALBUM=%albumtitle%" -T "DATE=%year%" -T "TRACKNUMBER=%tracknr%" -T "TOTALTRACKS=%numtracks%" -T "GENRE=%genre%" -T "ALBUMARTIST=%albumartist%" -T "ALBUM ARTIST=%albumartist%" -T "COMMENT=EAC Secure Mode, Test & Copy, AccurateRip, FLAC -8" %source%
TOC of the extracted CD
Track | Start | Length | Start sector | End sector
---------------------------------------------------------
1 | 0:00.00 | 5:17.53 | 0 | 23827
2 | 5:17.53 | 9:38.25 | 23828 | 67202
3 | 14:56.03 | 4:50.43 | 67203 | 88995
4 | 19:46.46 | 5:21.46 | 88996 | 113116
5 | 25:08.17 | 6:48.42 | 113117 | 143758
6 | 31:56.59 | 6:13.53 | 143759 | 171786
7 | 38:10.37 | 4:19.23 | 171787 | 191234
8 | 42:29.60 | 4:57.10 | 191235 | 213519
9 | 47:26.70 | 6:58.48 | 213520 | 244917
Track 1
Filename C:\EAC rips\01 - Blue Willie.wav
Pre-gap length 0:00:02.00
Peak level 100.0 %
Extraction speed 2.0 X
Track quality 99.9 %
Test CRC 35707B0B
Copy CRC 35707B0B
Track not present in AccurateRip database
Copy OK
Track 2
Filename C:\EAC rips\02 - Money, Money, Money.wav
Peak level 98.1 %
Extraction speed 2.6 X
Track quality 99.9 %
Test CRC EC360903
Copy CRC EC360903
Track not present in AccurateRip database
Copy OK
Track 3
Filename C:\EAC rips\03 - The Chirps of Imaginary Birds.wav
Pre-gap length 0:00:01.00
Peak level 93.7 %
Extraction speed 3.1 X
Track quality 100.0 %
Test CRC 0160786D
Copy CRC 0160786D
Track not present in AccurateRip database
Copy OK
Track 4
Filename C:\EAC rips\04 - Crackdown.wav
Peak level 97.0 %
Extraction speed 3.3 X
Track quality 100.0 %
Test CRC 8D7D392D
Copy CRC 8D7D392D
Track not present in AccurateRip database
Copy OK
Track 5
Filename C:\EAC rips\05 - Kersey.wav
Peak level 96.1 %
Extraction speed 3.6 X
Track quality 100.0 %
Test CRC 40FB3659
Copy CRC 40FB3659
Track not present in AccurateRip database
Copy OK
Track 6
Filename C:\EAC rips\06 - Death Wish.wav
Pre-gap length 0:00:02.00
Peak level 99.0 %
Extraction speed 3.8 X
Track quality 100.0 %
Test CRC 856B6889
Copy CRC 856B6889
Track not present in AccurateRip database
Copy OK
Track 7
Filename C:\EAC rips\07 - Meta Analytical Procedures for Social Research.wav
Pre-gap length 0:00:01.00
Peak level 100.0 %
Extraction speed 3.3 X
Track quality 99.9 %
Test CRC B8314FCA
Copy CRC B8314FCA
Track not present in AccurateRip database
Copy OK
Track 8
Filename C:\EAC rips\08 - Many Celebrations.wav
Pre-gap length 0:00:01.00
Peak level 99.2 %
Extraction speed 3.5 X
Track quality 99.9 %
Test CRC 332A8225
Copy CRC 332A8225
Track not present in AccurateRip database
Copy OK
Track 9
Filename C:\EAC rips\09 - Bali H'ai.wav
Peak level 100.0 %
Extraction speed 3.9 X
Track quality 99.9 %
Test CRC 25C72493
Copy CRC 25C72493
Track not present in AccurateRip database
Copy OK
None of the tracks are present in the AccurateRip database
No errors occurred
End of status report
---- CUETools DB Plugin V2.1.4
[CTDB TOCID: UQamHH6G0Cu83pkz6BXxIa7_QUM-] disk not present in database
Submit result: UQamHH6G0Cu83pkz6BXxIa7_QUM- has been uploaded
==== Log checksum C65E7A72D88F57512D601B728F495909E7FD363CCC0ED25F563E6A4ACECAA046 ====
 
Содержание индексной карты (.CUE)
REM GENRE Jazz
REM DATE 2012
REM DISCID 860CC109
REM COMMENT "ExactAudioCopy v1.0b3"
PERFORMER "Max Johnson Trio"
TITLE "Elevated Vegetation"
FILE "01 - Blue Willie.wav" WAVE
TRACK 01 AUDIO
TITLE "Blue Willie"
PERFORMER "Max Johnson Trio"
FLAGS DCP
INDEX 01 00:00:00
FILE "02 - Money, Money, Money.wav" WAVE
TRACK 02 AUDIO
TITLE "Money, Money, Money"
PERFORMER "Max Johnson Trio"
FLAGS DCP
INDEX 01 00:00:00
TRACK 03 AUDIO
TITLE "The Chirps of Imaginary Birds"
PERFORMER "Max Johnson Trio"
FLAGS DCP
INDEX 00 09:37:25
FILE "03 - The Chirps of Imaginary Birds.wav" WAVE
INDEX 01 00:00:00
FILE "04 - Crackdown.wav" WAVE
TRACK 04 AUDIO
TITLE "Crackdown"
PERFORMER "Max Johnson Trio"
FLAGS DCP
INDEX 01 00:00:00
FILE "05 - Kersey.wav" WAVE
TRACK 05 AUDIO
TITLE "Kersey"
PERFORMER "Max Johnson Trio"
FLAGS DCP
INDEX 01 00:00:00
TRACK 06 AUDIO
TITLE "Death Wish"
PERFORMER "Max Johnson Trio"
FLAGS DCP
INDEX 00 06:46:42
FILE "06 - Death Wish.wav" WAVE
INDEX 01 00:00:00
TRACK 07 AUDIO
TITLE "Meta Analytical Procedures for Social Research"
PERFORMER "Max Johnson Trio"
FLAGS DCP
INDEX 00 06:12:53
FILE "07 - Meta Analytical Procedures for Social Research.wav" WAVE
INDEX 01 00:00:00
TRACK 08 AUDIO
TITLE "Many Celebrations"
PERFORMER "Max Johnson Trio"
FLAGS DCP
INDEX 00 04:18:23
FILE "08 - Many Celebrations.wav" WAVE
INDEX 01 00:00:00
FILE "09 - Bali H'ai.wav" WAVE
TRACK 09 AUDIO
TITLE "Bali H'ai"
PERFORMER "Max Johnson Trio"
FLAGS DCP
INDEX 01 00:00:00
По всем вопросам пишите личное сообщение пользователю M0p94ok.
03:35
124
Нет комментариев. Ваш будет первым!