Поиск

(Avant-Garde Jazz / Contemporary Jazz) [CD] Angelica Sanchez (Marc Ducret, Tony Malaby, Drew Gress, Tom Rainey) - Life Between - 2008, FLAC (tracks+.cue), lossless

(Avant-Garde Jazz / Contemporary Jazz) [CD] Angelica Sanchez (Marc Ducret, Tony Malaby, Drew Gress, Tom Rainey) - Life Between - 2008, FLAC (tracks+.cue), lossless
Треклист:
Angelica Sanchez - Life Between
Жанр: Avant-Garde Jazz / Contemporary Jazz
Носитель: CD
Страна-производитель диска (релиза): Portugal
Год издания: 2008
Издатель (лейбл): Clean Feed
Номер по каталогу: CF128CD
Аудиокодек: FLAC (*.flac)
Тип рипа: tracks+.cue
Битрейт аудио: lossless
Продолжительность: 00:50:38
Источник (релизер): what.cd / спасибо 6060842
Наличие сканов в содержимом раздачи: нет
Треклист:
1. 514 (05:39)
2. Federico (07:14)
3. Name Dreamer (05:02)
4. Black Helicopters (06:14)
5. SF 4 (08:58)
6. Blue & Damson (06:54)
7. Life Between (06:50)
8. Corner Eye (03:59)
Доп. информация:
Musicians:
Angelica Sanchez - piano, Wurlitzer electric piano
Marc Ducret - electric guitar
Tony Malaby - tenor saxophone
Drew Gress - double bass
Tom Rainey - drums
Recorded on December 18, 2007 at Sytems Two Studios in Brooklyn, NY
Angelica Sanchez - Life Between cleanfeed-records.com
Angelica Sanchez - Life Between allaboutjazz.com
Angelica Sanchez - Life Between freejazzblog.org
Angelica Sanchez Official Site
Marc Ducret Official Site
Tony Malaby Official Site
 
... photo ...



 
... review ...
The emergence of Angelica Sanchez on the international scene dates back to 1995 when she relocated from Arizona to New York. She has left her personal mark in numerous collaborations with world-class musicians and her remarkable CD “Life Between” documents her individual improvisational and compositional voice. Her playing has a beautiful spacious abandon and a spirited willingness to let go and follow the essence of the music. Sanchez's compositions are multi-themed emotional landscapes. Each composition functions in harnessing and framing the dynamic improvisational power of her virtuoso ensemble.
Saxophonist Tony Malaby, is one of the most compelling living voices on his instrument who is able to musically expand in multiple musical directions. Drummer Tom Rainey, can capture, abstract and reconfigure rhythms, creating texture and multi-layers of propulsion as individually as any drummer on the planet. Drew Gress, MVP of bass players, distinguishes himself with profound tone, time, wonderful harmonic hearing and the ability to always serve the music first. Marc Ducret, the wonderful electric guitar virtuoso can rhythmicize, develop and fuse linearity, sound and microtonality into one fluid musical language.
If a band is a metaphor for a family, then the 'family values' of this ensemble is to blur the conventional boundaries of improvisation within composition. This has been developed to near telepathic levels between all the players. Delicate but free-flowing, the music in "Life Between" couldn't be more expressive of what is happening in new music today.
~ cleanfeed-records.com
 
Лог создания рипа
X Lossless Decoder version 20140504 (147.0)
XLD extraction logfile from 2014-10-09 03:32:49 +0400
Angelica Sanchez, Marc Ducret, Tony Malaby, Drew Gress, Tom Rainey / Life Between
Used drive : HL-DT-ST DVDRW GX30N (revision RP09)
Media type : Pressed CD
Ripper mode : XLD Secure Ripper
Disable audio cache : OK for the drive with a cache less than 1375KiB
Make use of C2 pointers : NO
Read offset correction : 6
Max retry count : 10000
Gap status : Analyzed, Appended (except HTOA)
TOC of the extracted CD
Track | Start | Length | Start sector | End sector
---------------------------------------------------------
1 | 00:00:00 | 05:39:54 | 0 | 25478
2 | 05:39:54 | 07:14:28 | 25479 | 58056
3 | 12:54:07 | 05:02:32 | 58057 | 80738
4 | 17:56:39 | 06:14:65 | 80739 | 108853
5 | 24:11:29 | 08:58:26 | 108854 | 149229
6 | 33:09:55 | 06:54:69 | 149230 | 180348
7 | 40:04:49 | 06:50:33 | 180349 | 211131
8 | 46:55:07 | 03:59:30 | 211132 | 229086
AccurateRip Summary (DiscID: 000fe9ef-006ad3ba-6d0bee08)
Track 01 : OK (v2, confidence 3/3)
Track 02 : OK (v2, confidence 4/4)
Track 03 : OK (v2, confidence 4/4)
Track 04 : OK (v2, confidence 4/4)
Track 05 : OK (v2, confidence 4/4)
Track 06 : OK (v2, confidence 4/4)
Track 07 : OK (v2, confidence 4/4)
Track 08 : OK (v2, confidence 4/4)
->All tracks accurately ripped.
All Tracks
Album gain : -3.68 dB
Peak : 1.000000
Statistics
Read error : 0
Jitter error (maybe fixed) : 0
Retry sector count : 0
Damaged sector count : 0
Track 01
Filename : /Users/Shared/Grabbed/Angelica Sanchez, Marc Ducret, Tony Malaby, Drew Gress, Tom Rainey - 2008 - Life Between [MP3 320]/01 - 514.mp3
/Users/Shared/Grabbed/Angelica Sanchez, Marc Ducret, Tony Malaby, Drew Gress, Tom Rainey - 2008 - Life Between [MP3 V0]/01 - 514.mp3
/Users/Shared/Grabbed/Angelica Sanchez, Marc Ducret, Tony Malaby, Drew Gress, Tom Rainey - 2008 - Life Between [FLAC]/01 - 514.flac
Pre-gap length : 00:02:00
Track gain : -3.69 dB
Peak : 0.991058
CRC32 hash (test run) : DB779FC5
CRC32 hash : DB779FC5
CRC32 hash (skip zero) : 2C480EF0
AccurateRip v1 signature : D45F0ECE
AccurateRip v2 signature : C5B5DADB
->Accurately ripped (v2, confidence 3/3)
Statistics
Read error : 0
Jitter error (maybe fixed) : 0
Retry sector count : 0
Damaged sector count : 0
Track 02
Filename : /Users/Shared/Grabbed/Angelica Sanchez, Marc Ducret, Tony Malaby, Drew Gress, Tom Rainey - 2008 - Life Between [MP3 320]/02 - Federico.mp3
/Users/Shared/Grabbed/Angelica Sanchez, Marc Ducret, Tony Malaby, Drew Gress, Tom Rainey - 2008 - Life Between [MP3 V0]/02 - Federico.mp3
/Users/Shared/Grabbed/Angelica Sanchez, Marc Ducret, Tony Malaby, Drew Gress, Tom Rainey - 2008 - Life Between [FLAC]/02 - Federico.flac
Pre-gap length : 00:02:00
Track gain : -2.32 dB
Peak : 0.985474
CRC32 hash (test run) : A3BF3C37
CRC32 hash : A3BF3C37
CRC32 hash (skip zero) : E86E2C3F
AccurateRip v1 signature : 3AFCD2D1
AccurateRip v2 signature : 6E67E474
->Accurately ripped (v2, confidence 4/4)
Statistics
Read error : 0
Jitter error (maybe fixed) : 0
Retry sector count : 0
Damaged sector count : 0
Track 03
Filename : /Users/Shared/Grabbed/Angelica Sanchez, Marc Ducret, Tony Malaby, Drew Gress, Tom Rainey - 2008 - Life Between [MP3 320]/03 - Name Dreamer.mp3
/Users/Shared/Grabbed/Angelica Sanchez, Marc Ducret, Tony Malaby, Drew Gress, Tom Rainey - 2008 - Life Between [MP3 V0]/03 - Name Dreamer.mp3
/Users/Shared/Grabbed/Angelica Sanchez, Marc Ducret, Tony Malaby, Drew Gress, Tom Rainey - 2008 - Life Between [FLAC]/03 - Name Dreamer.flac
Pre-gap length : 00:05:00
Track gain : -3.87 dB
Peak : 0.972626
CRC32 hash (test run) : 7FCC2764
CRC32 hash : 7FCC2764
CRC32 hash (skip zero) : FCCFAAC3
AccurateRip v1 signature : 12A2F12C
AccurateRip v2 signature : 7B06D3DE
->Accurately ripped (v2, confidence 4/4)
Statistics
Read error : 0
Jitter error (maybe fixed) : 0
Retry sector count : 0
Damaged sector count : 0
Track 04
Filename : /Users/Shared/Grabbed/Angelica Sanchez, Marc Ducret, Tony Malaby, Drew Gress, Tom Rainey - 2008 - Life Between [MP3 320]/04 - Black Helicopters.mp3
/Users/Shared/Grabbed/Angelica Sanchez, Marc Ducret, Tony Malaby, Drew Gress, Tom Rainey - 2008 - Life Between [MP3 V0]/04 - Black Helicopters.mp3
/Users/Shared/Grabbed/Angelica Sanchez, Marc Ducret, Tony Malaby, Drew Gress, Tom Rainey - 2008 - Life Between [FLAC]/04 - Black Helicopters.flac
Pre-gap length : 00:02:00
Track gain : -2.93 dB
Peak : 0.989777
CRC32 hash (test run) : DAD8EF43
CRC32 hash : DAD8EF43
CRC32 hash (skip zero) : 2526AA05
AccurateRip v1 signature : 3DA70131
AccurateRip v2 signature : B3EB743E
->Accurately ripped (v2, confidence 4/4)
Statistics
Read error : 0
Jitter error (maybe fixed) : 0
Retry sector count : 0
Damaged sector count : 0
Track 05
Filename : /Users/Shared/Grabbed/Angelica Sanchez, Marc Ducret, Tony Malaby, Drew Gress, Tom Rainey - 2008 - Life Between [MP3 320]/05 - SF 4.mp3
/Users/Shared/Grabbed/Angelica Sanchez, Marc Ducret, Tony Malaby, Drew Gress, Tom Rainey - 2008 - Life Between [MP3 V0]/05 - SF 4.mp3
/Users/Shared/Grabbed/Angelica Sanchez, Marc Ducret, Tony Malaby, Drew Gress, Tom Rainey - 2008 - Life Between [FLAC]/05 - SF 4.flac
Pre-gap length : 00:01:00
Track gain : -5.26 dB
Peak : 1.000000
CRC32 hash (test run) : 3BD4B119
CRC32 hash : 3BD4B119
CRC32 hash (skip zero) : 7BB3B582
AccurateRip v1 signature : A6DFED1F
AccurateRip v2 signature : 4C9FE9AB
->Accurately ripped (v2, confidence 4/4)
Statistics
Read error : 0
Jitter error (maybe fixed) : 0
Retry sector count : 0
Damaged sector count : 0
Track 06
Filename : /Users/Shared/Grabbed/Angelica Sanchez, Marc Ducret, Tony Malaby, Drew Gress, Tom Rainey - 2008 - Life Between [MP3 320]/06 - Blue & Damson.mp3
/Users/Shared/Grabbed/Angelica Sanchez, Marc Ducret, Tony Malaby, Drew Gress, Tom Rainey - 2008 - Life Between [MP3 V0]/06 - Blue & Damson.mp3
/Users/Shared/Grabbed/Angelica Sanchez, Marc Ducret, Tony Malaby, Drew Gress, Tom Rainey - 2008 - Life Between [FLAC]/06 - Blue & Damson.flac
Pre-gap length : 00:02:00
Track gain : -2.92 dB
Peak : 0.999939
CRC32 hash (test run) : 31763A06
CRC32 hash : 31763A06
CRC32 hash (skip zero) : 165A4312
AccurateRip v1 signature : E0BFD6AD
AccurateRip v2 signature : 00CEC941
->Accurately ripped (v2, confidence 4/4)
Statistics
Read error : 0
Jitter error (maybe fixed) : 0
Retry sector count : 0
Damaged sector count : 0
Track 07
Filename : /Users/Shared/Grabbed/Angelica Sanchez, Marc Ducret, Tony Malaby, Drew Gress, Tom Rainey - 2008 - Life Between [MP3 320]/07 - Life Between.mp3
/Users/Shared/Grabbed/Angelica Sanchez, Marc Ducret, Tony Malaby, Drew Gress, Tom Rainey - 2008 - Life Between [MP3 V0]/07 - Life Between.mp3
/Users/Shared/Grabbed/Angelica Sanchez, Marc Ducret, Tony Malaby, Drew Gress, Tom Rainey - 2008 - Life Between [FLAC]/07 - Life Between.flac
Pre-gap length : 00:02:00
Track gain : -2.52 dB
Peak : 0.978333
CRC32 hash (test run) : 314B2245
CRC32 hash : 314B2245
CRC32 hash (skip zero) : 5AEFC19F
AccurateRip v1 signature : 74E45B97
AccurateRip v2 signature : 100D4182
->Accurately ripped (v2, confidence 4/4)
Statistics
Read error : 0
Jitter error (maybe fixed) : 0
Retry sector count : 0
Damaged sector count : 0
Track 08
Filename : /Users/Shared/Grabbed/Angelica Sanchez, Marc Ducret, Tony Malaby, Drew Gress, Tom Rainey - 2008 - Life Between [MP3 320]/08 - Corner Eye.mp3
/Users/Shared/Grabbed/Angelica Sanchez, Marc Ducret, Tony Malaby, Drew Gress, Tom Rainey - 2008 - Life Between [MP3 V0]/08 - Corner Eye.mp3
/Users/Shared/Grabbed/Angelica Sanchez, Marc Ducret, Tony Malaby, Drew Gress, Tom Rainey - 2008 - Life Between [FLAC]/08 - Corner Eye.flac
Pre-gap length : 00:02:00
Track gain : -2.03 dB
Peak : 0.988617
CRC32 hash (test run) : 23238700
CRC32 hash : 23238700
CRC32 hash (skip zero) : 277EA4BD
AccurateRip v1 signature : 8F4E46BB
AccurateRip v2 signature : 993B39A6
->Accurately ripped (v2, confidence 4/4)
Statistics
Read error : 0
Jitter error (maybe fixed) : 0
Retry sector count : 0
Damaged sector count : 0
No errors occurred
End of status report
-----BEGIN XLD SIGNATURE-----
K5UsiKjlsVo353ryFhzpOvoqeIYz4GL.hEdlRXhFMVTuX.1sGq7b4X4.KLWFutdS5DsPLUDp3qOkP_TVttHfn4WIea2Jsx6GZe00iFG
-----END XLD SIGNATURE-----
 
Содержание индексной карты (.CUE)
TITLE "Life Between"
PERFORMER "Angelica Sanchez, Marc Ducret, Tony Malaby, Drew Gress, Tom Rainey"
REM GENRE "Free Jazz"
REM DATE "2008"
REM DISCID 6D0BEE08
REM REPLAYGAIN_ALBUM_GAIN -3.68 dB
REM REPLAYGAIN_ALBUM_PEAK 1.000000
FILE "01 - 514.flac" WAVE
TRACK 01 AUDIO
TITLE "514"
PERFORMER "Angelica Sanchez, Marc Ducret, Tony Malaby, Drew Gress, Tom Rainey"
REM REPLAYGAIN_TRACK_GAIN -3.69 dB
REM REPLAYGAIN_TRACK_PEAK 0.991058
INDEX 01 00:00:00
TRACK 02 AUDIO
TITLE " Federico"
PERFORMER "Angelica Sanchez, Marc Ducret, Tony Malaby, Drew Gress, Tom Rainey"
REM REPLAYGAIN_TRACK_GAIN -2.32 dB
REM REPLAYGAIN_TRACK_PEAK 0.985474
INDEX 00 05:37:54
FILE "02 - Federico.flac" WAVE
INDEX 01 00:00:00
TRACK 03 AUDIO
TITLE "Name Dreamer"
PERFORMER "Angelica Sanchez, Marc Ducret, Tony Malaby, Drew Gress, Tom Rainey"
REM REPLAYGAIN_TRACK_GAIN -3.87 dB
REM REPLAYGAIN_TRACK_PEAK 0.972626
INDEX 00 07:09:28
FILE "03 - Name Dreamer.flac" WAVE
INDEX 01 00:00:00
TRACK 04 AUDIO
TITLE "Black Helicopters"
PERFORMER "Angelica Sanchez, Marc Ducret, Tony Malaby, Drew Gress, Tom Rainey"
REM REPLAYGAIN_TRACK_GAIN -2.93 dB
REM REPLAYGAIN_TRACK_PEAK 0.989777
INDEX 00 05:00:32
FILE "04 - Black Helicopters.flac" WAVE
INDEX 01 00:00:00
TRACK 05 AUDIO
TITLE "SF 4"
PERFORMER "Angelica Sanchez, Marc Ducret, Tony Malaby, Drew Gress, Tom Rainey"
REM REPLAYGAIN_TRACK_GAIN -5.26 dB
REM REPLAYGAIN_TRACK_PEAK 1.000000
INDEX 00 06:13:65
FILE "05 - SF 4.flac" WAVE
INDEX 01 00:00:00
TRACK 06 AUDIO
TITLE "Blue & Damson"
PERFORMER "Angelica Sanchez, Marc Ducret, Tony Malaby, Drew Gress, Tom Rainey"
REM REPLAYGAIN_TRACK_GAIN -2.92 dB
REM REPLAYGAIN_TRACK_PEAK 0.999939
INDEX 00 08:56:26
FILE "06 - Blue & Damson.flac" WAVE
INDEX 01 00:00:00
TRACK 07 AUDIO
TITLE "Life Between"
PERFORMER "Angelica Sanchez, Marc Ducret, Tony Malaby, Drew Gress, Tom Rainey"
REM REPLAYGAIN_TRACK_GAIN -2.52 dB
REM REPLAYGAIN_TRACK_PEAK 0.978333
INDEX 00 06:52:69
FILE "07 - Life Between.flac" WAVE
INDEX 01 00:00:00
TRACK 08 AUDIO
TITLE "Corner Eye"
PERFORMER "Angelica Sanchez, Marc Ducret, Tony Malaby, Drew Gress, Tom Rainey"
REM REPLAYGAIN_TRACK_GAIN -2.03 dB
REM REPLAYGAIN_TRACK_PEAK 0.988617
INDEX 00 06:48:33
FILE "08 - Corner Eye.flac" WAVE
INDEX 01 00:00:00
По всем вопросам пишите личное сообщение пользователю M0p94ok.
09:44
317
Нет комментариев. Ваш будет первым!