Вы используете незарегистрированную версию компонента "Вкладки"!

Поиск

(Avant-Garde Jazz, Contemporary) [CD] Franco D'Andrea Sextet - Monk And The Time Machine - 2014 [2 CD], FLAC (tracks+.cue), lossless

(Avant-Garde Jazz, Contemporary) [CD] Franco D'Andrea Sextet - Monk And The Time Machine - 2014 [2 CD], FLAC (tracks+.cue), lossless
Треклист:
Franco D'Andrea Sextet
Monk and the Time Machine Жанр: Avant-Garde Jazz, Contemporary
Страна-производитель диска: Italy
Год издания: 2014
Издатель (лейбл): Parco Della Musica Records
Номер по каталогу: MPR 053CD
Аудиокодек: FLAC (*.flac)
Тип рипа: tracks+.cue
Битрейт аудио: lossless
Продолжительность: 61:12 + 58:04
Источник (релизер): спасибо tiburon
Наличие сканов в содержимом раздачи: да
Треклист:
CD1
1. Into The Mistery / Deep Riff
2. Light Blue / Epistrophy
3. Misterioso / Monk's W.T.L.
4. Monk's Mood / O.T. Abstraction
5. Monodic / Well You Needn't
CD2
1. A New Rag Suite
2. I Mean You
3. Monk's W.T.L. / Locomotive
4. Un gioco
5. Blue Monk
6. Brake's Sake
7. Naif
8. Blue Monk / Brake's Sake / Naif / Un gioco
9. Coming on the Hudson
10. Brake's Sake [alt. take]
11. Coming on the Hudson [alt. take]
 
Лог создания рипа
 
CD1
Exact Audio Copy V1.0 beta 3 from 29. August 2011
EAC extraction logfile from 18. May 2014, 12:12
Franco D'Andrea Sextet / Monk And The Time Machine
Used drive : HL-DT-STDVDRAM GH20NS10 Adapter: 2 ID: 1
Read mode : Secure
Utilize accurate stream : Yes
Defeat audio cache : Yes
Make use of C2 pointers : No
Read offset correction : 667
Overread into Lead-In and Lead-Out : No
Fill up missing offset samples with silence : Yes
Delete leading and trailing silent blocks : No
Null samples used in CRC calculations : Yes
Used interface : Native Win32 interface for Win NT & 2000
Gap handling : Appended to previous track
Used output format : User Defined Encoder
Selected bitrate : 1024 kBit/s
Quality : High
Add ID3 tag : No
Command line compressor : C:\Program Files\Exact Audio Copy\Flac\flac.exe
Additional command line options : -8 -V -T "ARTIST=%artist%" -T "TITLE=%title%" -T "ALBUM=%albumtitle%" -T "DATE=%year%" -T "TRACKNUMBER=%tracknr%" -T "TOTALTRACKS=%numtracks%" -T "GENRE=%genre%" -T "ALBUMARTIST=%albumartist%" -T "ALBUM ARTIST=%albumartist%" -T "COMMENT=EAC Secure Mode, Test & Copy, AccurateRip, FLAC -8" %source%
TOC of the extracted CD
Track | Start | Length | Start sector | End sector
---------------------------------------------------------
1 | 0:00.00 | 11:32.41 | 0 | 51940
2 | 11:32.41 | 10:41.34 | 51941 | 100049
3 | 22:14.00 | 14:50.33 | 100050 | 166832
4 | 37:04.33 | 14:41.45 | 166833 | 232952
5 | 51:46.03 | 9:26.59 | 232953 | 275461
Track 1
Filename D:\Franco D'Andrea Sextet - Monk And The Time Machine (2014) [FLAC]\CD1\01 - Into the Mystery.wav
Pre-gap length 0:00:02.00
Peak level 96.2 %
Extraction speed 2.2 X
Track quality 99.9 %
Test CRC 31C99106
Copy CRC 31C99106
Track not present in AccurateRip database
Copy OK
Track 2
Filename D:\Franco D'Andrea Sextet - Monk And The Time Machine (2014) [FLAC]\CD1\02 - Light Blue.wav
Peak level 96.2 %
Extraction speed 2.3 X
Track quality 100.0 %
Test CRC 852D5D1B
Copy CRC 852D5D1B
Track not present in AccurateRip database
Copy OK
Track 3
Filename D:\Franco D'Andrea Sextet - Monk And The Time Machine (2014) [FLAC]\CD1\03 - Misterioso.wav
Peak level 96.2 %
Extraction speed 2.3 X
Track quality 100.0 %
Test CRC 9675BEF6
Copy CRC 9675BEF6
Track not present in AccurateRip database
Copy OK
Track 4
Filename D:\Franco D'Andrea Sextet - Monk And The Time Machine (2014) [FLAC]\CD1\04 - Monk's Mood.wav
Peak level 96.2 %
Extraction speed 2.3 X
Track quality 100.0 %
Test CRC B6E182B8
Copy CRC B6E182B8
Track not present in AccurateRip database
Copy OK
Track 5
Filename D:\Franco D'Andrea Sextet - Monk And The Time Machine (2014) [FLAC]\CD1\05 - Monodic.wav
Peak level 94.6 %
Extraction speed 2.3 X
Track quality 100.0 %
Test CRC EA2E5B48
Copy CRC EA2E5B48
Track not present in AccurateRip database
Copy OK
None of the tracks are present in the AccurateRip database
No errors occurred
End of status report
==== Log checksum D63CF24B5DCB8ECB771FE31C6A88DE37CE8625108C73648DAE68348BD8E9F03D ====
 
CD2
Exact Audio Copy V1.0 beta 3 from 29. August 2011
EAC extraction logfile from 18. May 2014, 14:37
Franco D'Andrea Sextet / Monk And The Time Machine
Used drive : HL-DT-STDVDRAM GH20NS10 Adapter: 2 ID: 1
Read mode : Secure
Utilize accurate stream : Yes
Defeat audio cache : Yes
Make use of C2 pointers : No
Read offset correction : 667
Overread into Lead-In and Lead-Out : No
Fill up missing offset samples with silence : Yes
Delete leading and trailing silent blocks : No
Null samples used in CRC calculations : Yes
Used interface : Native Win32 interface for Win NT & 2000
Gap handling : Appended to previous track
Used output format : User Defined Encoder
Selected bitrate : 1024 kBit/s
Quality : High
Add ID3 tag : No
Command line compressor : C:\Program Files (x86)\Exact Audio Copy\FLAC\FLAC.EXE
Additional command line options : -8 -V -T "ARTIST=%artist%" -T "TITLE=%title%" -T "ALBUM=%albumtitle%" -T "DATE=%year%" -T "TRACKNUMBER=%tracknr%" -T "TOTALTRACKS=%numtracks%" -T "GENRE=%genre%" -T "ALBUMARTIST=%albumartist%" -T "ALBUM ARTIST=%albumartist%" -T "COMMENT=EAC Secure Mode, Test & Copy, AccurateRip, FLAC -8" %source%
TOC of the extracted CD
Track | Start | Length | Start sector | End sector
---------------------------------------------------------
1 | 0:00.00 | 4:00.59 | 0 | 18058
2 | 4:00.59 | 5:28.42 | 18059 | 42700
3 | 9:29.26 | 7:18.67 | 42701 | 75617
4 | 16:48.18 | 5:06.19 | 75618 | 98586
5 | 21:54.37 | 5:14.72 | 98587 | 122208
6 | 27:09.34 | 7:08.12 | 122209 | 154320
7 | 34:17.46 | 4:23.03 | 154321 | 174048
8 | 38:40.49 | 7:51.36 | 174049 | 209409
9 | 46:32.10 | 2:24.06 | 209410 | 220215
10 | 48:56.16 | 6:47.36 | 220216 | 250776
11 | 55:43.52 | 2:20.27 | 250777 | 261303
Track 1
Filename D:\Franco D'Andrea Sextet - Monk And The Time Machine (2014) [FLAC]\CD2\01 - A New Rag Suite.wav
Pre-gap length 0:00:02.00
Peak level 91.8 %
Extraction speed 2.0 X
Track quality 100.0 %
Test CRC 20CA1911
Copy CRC 20CA1911
Track not present in AccurateRip database
Copy OK
Track 2
Filename D:\Franco D'Andrea Sextet - Monk And The Time Machine (2014) [FLAC]\CD2\02 - I Mean You.wav
Peak level 96.2 %
Extraction speed 2.3 X
Track quality 100.0 %
Test CRC F4FFFEE2
Copy CRC F4FFFEE2
Track not present in AccurateRip database
Copy OK
Track 3
Filename D:\Franco D'Andrea Sextet - Monk And The Time Machine (2014) [FLAC]\CD2\03 - Monk's W.T.L. , Locomotive.wav
Peak level 83.8 %
Extraction speed 2.4 X
Track quality 99.9 %
Test CRC E4FCF9DE
Copy CRC E4FCF9DE
Track not present in AccurateRip database
Copy OK
Track 4
Filename D:\Franco D'Andrea Sextet - Monk And The Time Machine (2014) [FLAC]\CD2\04 - Un gioco.wav
Peak level 96.2 %
Extraction speed 2.9 X
Track quality 100.0 %
Test CRC 794195D0
Copy CRC 794195D0
Track not present in AccurateRip database
Copy OK
Track 5
Filename D:\Franco D'Andrea Sextet - Monk And The Time Machine (2014) [FLAC]\CD2\05 - Blue Monk.wav
Peak level 95.6 %
Extraction speed 3.1 X
Track quality 100.0 %
Test CRC 6C1DC707
Copy CRC 6C1DC707
Track not present in AccurateRip database
Copy OK
Track 6
Filename D:\Franco D'Andrea Sextet - Monk And The Time Machine (2014) [FLAC]\CD2\06 - Brake's Sake.wav
Peak level 96.2 %
Extraction speed 3.4 X
Track quality 100.0 %
Test CRC 29FC8B5A
Copy CRC 29FC8B5A
Track not present in AccurateRip database
Copy OK
Track 7
Filename D:\Franco D'Andrea Sextet - Monk And The Time Machine (2014) [FLAC]\CD2\07 - Naif.wav
Peak level 88.2 %
Extraction speed 3.5 X
Track quality 100.0 %
Test CRC B892EC3E
Copy CRC B892EC3E
Track not present in AccurateRip database
Copy OK
Track 8
Filename D:\Franco D'Andrea Sextet - Monk And The Time Machine (2014) [FLAC]\CD2\08 - Blue Monk , Brake's Sake , Naif , Un gioco.wav
Peak level 95.6 %
Extraction speed 3.9 X
Track quality 100.0 %
Test CRC BD1D5D00
Copy CRC BD1D5D00
Track not present in AccurateRip database
Copy OK
Track 9
Filename D:\Franco D'Andrea Sextet - Monk And The Time Machine (2014) [FLAC]\CD2\09 - Coming on the Hudson.wav
Peak level 93.9 %
Extraction speed 2.2 X
Track quality 99.9 %
Test CRC 9D9D72E1
Copy CRC 9D9D72E1
Track not present in AccurateRip database
Copy OK
Track 10
Filename D:\Franco D'Andrea Sextet - Monk And The Time Machine (2014) [FLAC]\CD2\10 - Brake's Sake [alternate take].wav
Peak level 95.1 %
Extraction speed 4.1 X
Track quality 100.0 %
Test CRC 2E7ABE91
Copy CRC 2E7ABE91
Track not present in AccurateRip database
Copy OK
Track 11
Filename D:\Franco D'Andrea Sextet - Monk And The Time Machine (2014) [FLAC]\CD2\11 - Coming on the Hudson [alternate take].wav
Peak level 90.6 %
Extraction speed 3.6 X
Track quality 100.0 %
Test CRC 3022E362
Copy CRC 3022E362
Track not present in AccurateRip database
Copy OK
None of the tracks are present in the AccurateRip database
No errors occurred
End of status report
==== Log checksum 29CF8C824710B70255B6B19D1350285956CCCB34A43D0AFCC3BEF59AB13F3AA7 ====
 
Содержание индексной карты (.CUE)
 
CD1
REM GENRE Jazz
REM DATE 2014
REM DISCID 3A0E5805
REM COMMENT "ExactAudioCopy v1.0b3"
PERFORMER "Franco D'Andrea Sextet"
TITLE "Monk and the Time Machine"
FILE "01 - Into the Mystery.flac" WAVE
TRACK 01 AUDIO
TITLE "Into the Mystery"
PERFORMER "Franco D'Andrea Sextet"
INDEX 01 00:00:00
FILE "02 - Light Blue.flac" WAVE
TRACK 02 AUDIO
TITLE "Light Blue"
PERFORMER "Franco D'Andrea Sextet"
INDEX 01 00:00:00
FILE "03 - Misterioso.flac" WAVE
TRACK 03 AUDIO
TITLE "Misterioso"
PERFORMER "Franco D'Andrea Sextet"
INDEX 01 00:00:00
FILE "04 - Monk's Mood.flac" WAVE
TRACK 04 AUDIO
TITLE "Monk's Mood"
PERFORMER "Franco D'Andrea Sextet"
INDEX 01 00:00:00
FILE "05 - Monodic.flac" WAVE
TRACK 05 AUDIO
TITLE "Monodic"
PERFORMER "Franco D'Andrea Sextet"
INDEX 01 00:00:00
 
CD2
REM DISCID 830D9C0B
REM COMMENT "ExactAudioCopy v1.0b3"
PERFORMER "Franco D'Andrea Sextet"
TITLE "Monk and the Time Machine"
FILE "01 - A New Rag Suite.flac" WAVE
TRACK 01 AUDIO
TITLE "A New Rag Suite"
PERFORMER "Franco D'Andrea Sextet"
INDEX 01 00:00:00
FILE "02 - I Mean You.flac" WAVE
TRACK 02 AUDIO
TITLE "I Mean You"
PERFORMER "Franco D'Andrea Sextet"
INDEX 01 00:00:00
FILE "03 - Monk's W.T.L. , Locomotive.flac" WAVE
TRACK 03 AUDIO
TITLE "Monk's W.T.L. / Locomotive"
PERFORMER "Franco D'Andrea Sextet"
INDEX 01 00:00:00
FILE "04 - Un gioco.flac" WAVE
TRACK 04 AUDIO
TITLE "Un gioco"
PERFORMER "Franco D'Andrea Sextet"
INDEX 01 00:00:00
FILE "05 - Blue Monk.flac" WAVE
TRACK 05 AUDIO
TITLE "Blue Monk"
PERFORMER "Franco D'Andrea Sextet"
INDEX 01 00:00:00
FILE "06 - Brake's Sake.flac" WAVE
TRACK 06 AUDIO
TITLE "Brake's Sake"
PERFORMER "Franco D'Andrea Sextet"
INDEX 01 00:00:00
FILE "07 - Naif.flac" WAVE
TRACK 07 AUDIO
TITLE "Naif"
PERFORMER "Franco D'Andrea Sextet"
INDEX 01 00:00:00
FILE "08 - Blue Monk , Brake's Sake , Naif , Un gioco.flac" WAVE
TRACK 08 AUDIO
TITLE "Blue Monk / Brake's Sake / Naif / Un gioco"
PERFORMER "Franco D'Andrea Sextet"
INDEX 01 00:00:00
FILE "09 - Coming on the Hudson.flac" WAVE
TRACK 09 AUDIO
TITLE "Coming on the Hudson"
PERFORMER "Franco D'Andrea Sextet"
INDEX 01 00:00:00
FILE "10 - Brake's Sake [alternate take].flac" WAVE
TRACK 10 AUDIO
TITLE "Brake's Sake [alternate take]"
PERFORMER "Franco D'Andrea Sextet"
INDEX 01 00:00:00
FILE "11 - Coming on the Hudson [alternate take].flac" WAVE
TRACK 11 AUDIO
TITLE "Coming on the Hudson [alternate take]"
PERFORMER "Franco D'Andrea Sextet"
INDEX 01 00:00:00
 
Об альбоме
Now I am very fond of my Monk themes and I call’m my themes because I’ve been working with them for years now, squeezing them out of my clarinet and seeing where they lead me (no audience allowed). I see them as small extraction tools, they serve as a nice lithmus test for the extent of your musicianship. And then their titles: Ask Me Later, Humph, Ugly Beauty. D’Andrea says in his liner notes: “ I take Monk as a pretext, a starting point to go and visit all the places of my way to see the music.” Many did exactly that before him, and they have given me several highlights in my life. Take Von Schlippenbach’s extremely quirky Monk’s Casino, take Eugene Chadbourne’s fight to walk the narrow line where ugliness meets beauty and take of course any rendition of any Monk theme by the inimitable and era-defining ICP Orchestra.
It is no coincidence, to my ears, that D’Andrea quotes a Misha Mengelberg theme to set of his Monk and the Time Machine. I’m so sold. 'Into the Mystery – Deep Riff' the first piece is called and it does exactly that. It pulls you in, pushes you away, teases you into this beautiful interplay where everybody’s tongue is firm in cheek, everybody’s abilities honed to impeccable freedom. When you listen, when you listen and you dig it, can you dig it. We have Franco D’Andrea picking out the keys with care and abandon, waiting for the empty space to appear to punch in the note it requires, enticing Daniele D’Agaro to take it away as a puppy takes away a towel too big for him, Mauro Ottolini underscoring, Andrea Ayassot exploring every alto between New Orleans and the Knitting Factory, living or dead, and Aldo Mella on bass and Zeno De Rossi on battery, the beating heart throughout this entire record. When you have ever witnessed the murmurations of a flock of starlings you know exactly what I’m talking about. “It is a curious thing, Harry, but perhaps those who are best suited to power are those who have never sought it. Those who, like you, have leadership thrust upon them, and take up the mantle because they must, and find to their own surprise that they wear it well.” They wear it extremely well these Italians, remember their names if you don’t carry them in your heart yet. Oh the gentle way with which they pry open the gates of 'Light Blue', circumscribing, waiting for the notes to land but not forgetting to revel in them while they fall and emerging with a twisted lounge take, and this is only track 2 .
You might have surmised by know that I have grown quite fond of this record. I carried it in my ears (Classic Ipod) for days now, I’ve walked through Vienna, through woods, through my everyday hometown and they form the perfect companion to anything really and to nothing in particular. Then suddenly being entered midship by the erupting angularity of 'Epistrophy', taking it quickly and surely to its extremes, leaping over the boundaries and shaping it into a joyous anthem. Ending it in the so effective ICP way: tam te dem tam. Schluss. D’Andrea born 1941, Zeno de Rossi was born in Verona, Italy in the year of the dog on Elul 9, 5730 under the sign of virgo. It was a Thursday. Track 3 is 'Misterioso', need I say more, and is given the full treatment by the trombone, tailgating its way through the parade, leaping into those treacherous sevenths with trepidation but without fear, creating a wake for the others who get unmoored in, and merging into the oh so skewed swing you get when you break it up and reassemble it without glossing over the seams. Monk would have donned his fez and started skipping around the piano. Ottolini born in 1972, D’Agaro born in 1958 and of course of long standing in Centazzo’s Mitteleuropa Orchestra. He played in a trio with Tobias Delius and Sean Bergin for god’s sake.
A rare curiosity unsatisfied throughout the years permeates this music. Take 'Bright Mississippi' which is next and unleashes the full power of this band, bringing it right back to Dixie, to JASS, to a toewaggin and fingerlicking romp.
Then comes 'Monk’s Mood', conjured up from the deepest bass on the piano ( bass sustained by De Rossi and Mella throughout), delicately picked out of the strings and taken over and augmented by the clarinet, and once again listening trance is locked on , this thing can on eternal repeat ( hooded trombone always does it to me). And then they take you by the hand again and lead you around the bend, whispering all the time: wait there’s more, there’s 'Abstraction'. Cleansing off the ears while being kept on your toes. Then picking us up for one more track. Bass solo. Slowly and patiently weaving a pattern out of preexisting threads, some cymbal waving in the background, bass not taking that and speeding things up, triplets, quintuplets, squeezing the strings and handing over to the piano again, Monk’s splayed fingers, no D’Andrea and wait there’s another theme to take apart, 'Well You Needn’t'. You're talkin' so sweet well you needn't, you say you won't cheat well you needn't, you're tappin' your feet well you needn't, it's over now, it's over now.
Monk often ended his performances with this. They do too. Meandering out never touching examining every involute never even fullout playing it, but as every mathematician knows, from the involute you can easily reconstruct the original curve. They leave me rapt (well you needn’t).
And that’s only one disc. They still have 'Brake’s Sake', 'Locomotive', 'Coming on the Hudson', 'Blue Monk', 'I Mean You'. Don’t get me started.
In these ears it has already become a timeless masterpiece. Monk reversed, tried out, worked through, enlarged, taken to new turns, between past and future the ongoing game. Up there with the above mentioned. Up there with the Melodious Thunk himself: don’t play everything (or every time); let some things go by, some music just imagined. What you don’t play can be more important that what you do. Always leave them wanting more. (Hugo Truyens, freejazzblog.org)
 
Состав
•Franco D'Andrea• piano
•Andrea Ayassot• alto & soprano sax
•Daniele D'Agaro• clarinet
•Mauro Ottolini• trombone
•Aldo Mella• double bass
•Zeno De Rossi• drums
По всем вопросам пишите личное сообщение пользователю M0p94ok.
02:18
162
Нет комментариев. Ваш будет первым!