Вы используете незарегистрированную версию компонента "Вкладки"!

Поиск

(Avant-garde Jazz) [CD] The Barry Altschul Quartet - For Stu - 1989, FLAC (tracks+.cue), lossless

(Avant-garde Jazz) [CD] The Barry Altschul Quartet - For Stu - 1989, FLAC (tracks+.cue), lossless
Треклист:
The Barry Altschul Quartet / For Stu
Жанр: Avant-garde Jazz
Носитель: CD
Страна-производитель диска (релиза): Italy
Год издания: 1989
Издатель (лейбл): Soul Note
Номер по каталогу: 121015-2
Страна исполнителя (группы): United States
Аудиокодек: FLAC (*.flac)
Тип рипа: tracks+.cue
Битрейт аудио: lossless
Продолжительность: 41:08
Источник (релизер): Вата
Наличие сканов в содержимом раздачи: да
Треклист:
1.For Stu
Arranged By – Anthony Davis (2)
Composed By – Barry Altschul
11:16
2.Sleepwalker
Composed By – Anthony Davis (2)
9:15
3.Drum Role
Composed By – Barry Altschul
6:59
4.Orange Was The Color Of Her Dress, Then Silk Blues
Composed By – Charles Mingus
13:38
 
Лог создания рипа
Exact Audio Copy V0.99 prebeta 5 from 4. May 2009
EAC extraction logfile from 18. October 2010, 18:29
Baryy Altschul Quartet / For Stu
Used drive : TSSTcorpCDDVDW SH-S222A Adapter: 1 ID: 0
Read mode : Secure
Utilize accurate stream : Yes
Defeat audio cache : Yes
Make use of C2 pointers : No
Read offset correction : 6
Overread into Lead-In and Lead-Out : No
Fill up missing offset samples with silence : Yes
Delete leading and trailing silent blocks : No
Null samples used in CRC calculations : Yes
Used interface : Native Win32 interface for Win NT & 2000
Gap handling : Appended to previous track
Used output format : User Defined Encoder
Selected bitrate : 768 kBit/s
Quality : High
Add ID3 tag : No
Command line compressor : C:\tool\Audio\Exact Audio Copy\FLAC\FLAC.EXE
Additional command line options : -V -8 -T "ARTIST=%a" -T "TITLE=%t" -T "ALBUM=%g" -T "TRACKNUMBER=%n" -T "GENRE=%m" %s
TOC of the extracted CD
Track | Start | Length | Start sector | End sector
---------------------------------------------------------
1 | 0:00.33 | 11:16.00 | 33 | 50732
2 | 11:16.33 | 9:15.00 | 50733 | 92357
3 | 20:31.33 | 6:59.00 | 92358 | 123782
4 | 27:30.33 | 13:38.00 | 123783 | 185132
Track 1
Filename C:\! RUTRACKER\ru up\Barry Altschul Quartet - For Stu\01 - For Stu.wav
Pre-gap length 0:00:02.33
Peak level 91.7 %
Track quality 100.0 %
Test CRC 52D8758F
Copy CRC 52D8758F
Track not present in AccurateRip database
Copy OK
Track 2
Filename C:\! RUTRACKER\ru up\Barry Altschul Quartet - For Stu\02 - Sleepwalker.wav
Peak level 91.7 %
Track quality 100.0 %
Test CRC FEF011DE
Copy CRC FEF011DE
Track not present in AccurateRip database
Copy OK
Track 3
Filename C:\! RUTRACKER\ru up\Barry Altschul Quartet - For Stu\03 - Drum Role.wav
Peak level 91.7 %
Track quality 100.0 %
Test CRC 2F2FB06C
Copy CRC 2F2FB06C
Track not present in AccurateRip database
Copy OK
Track 4
Filename C:\! RUTRACKER\ru up\Barry Altschul Quartet - For Stu\04 - Orange Was The Color Of Her Dress, Then Silk Blues.wav
Peak level 91.7 %
Track quality 100.0 %
Test CRC FE144B25
Copy CRC FE144B25
Track not present in AccurateRip database
Copy OK
None of the tracks are present in the AccurateRip database
No errors occurred
End of status report
 
Содержание индексной карты (.CUE)
REM GENRE Jazz
REM DATE 1979
REM DISCID 2E09A404
REM COMMENT "ExactAudioCopy v0.99pb5"
PERFORMER "Baryy Altschul Quartet"
TITLE "For Stu"
FILE "01 - For Stu.wav" WAVE
TRACK 01 AUDIO
TITLE "For Stu"
PERFORMER "Baryy Altschul Quartet"
PREGAP 00:00:33
INDEX 01 00:00:00
FILE "02 - Sleepwalker.wav" WAVE
TRACK 02 AUDIO
TITLE "Sleepwalker"
PERFORMER "Baryy Altschul Quartet"
INDEX 01 00:00:00
FILE "03 - Drum Role.wav" WAVE
TRACK 03 AUDIO
TITLE "Drum Role"
PERFORMER "Baryy Altschul Quartet"
INDEX 01 00:00:00
FILE "04 - Orange Was The Color Of Her Dress, Then Silk Blues.wav" WAVE
TRACK 04 AUDIO
TITLE "Orange Was The Color Of Her Dress, Then Silk Blues"
PERFORMER "Baryy Altschul Quartet"
INDEX 01 00:00:00
 
Об альбоме (сборнике)
Recorded at Sound Ideas Studios, NYC, on February 18, 1979
Re-Mixed at Celestial Sound Studios, NYC, on February 14, 15, 1981
Originally released in 1981.
 
Состав
Companies, etc.
Manufactured By – PhonoComp
Phonographic Copyright (p) – Soul Note
Copyright (c) – Soul Note
Published By – IREC Milano
Recorded At – Sound Ideas Studios
Remixed At – Celestial Sound Studios
Credits
Bass – Rick Rozie
Design, Art Direction – Pick Up Studios
Drums – Barry Altschul
Engineer [Assistant] – Phil Faraci
Engineer, Remix – Chuck Ange
Executive-Producer – Giovanni Bonandrini
Liner Notes – Lee Jeske
Photography By [Back Cover] – Carlo Verri
Photography By [Front Cover, Back Cover] – Luigi Zanon
Piano – Anthony Davis (2)
Producer – Barry Altschul
Remix [Assistant] – Cheryl Smith
Trombone – Ray Anderson
По всем вопросам пишите личное сообщение пользователю M0p94ok.
18:08
133
Нет комментариев. Ваш будет первым!