Вы используете незарегистрированную версию компонента "Вкладки"!

Поиск

(Acoustic, Contemporary Jazz) [CD] Annette Peacock - I Have No Feelings - 1989, FLAC (tracks+.cue), lossless

(Acoustic, Contemporary Jazz) [CD] Annette Peacock - I Have No Feelings - 1989, FLAC (tracks+.cue), lossless
Треклист:
Annette Peacock / I Have No Feelings
Жанр: Acoustic, Contemporary Jazz
Носитель: CD
Страна-производитель диска (релиза): UK
Год издания: 1989
Издатель (лейбл): Ironic Records
Номер по каталогу: IRONIC 4 CD
Аудиокодек: FLAC (*.flac)
Тип рипа: tracks+.cue
Битрейт аудио: lossless
Продолжительность: 31:11
Источник (релизер): вата
Наличие сканов в содержимом раздачи: нет
Треклист:
1.Nothing Ever Was, Anyway
2.Butterflies
3.I'm Not Perfect
4.I Have No Feelings
5.The Cynic
6.The Carousel
7.You've Left Me
8.Sincereless
9.Freefall
10.This Almost Spring
11.The Feeling's Free
12.A Personal Revolution
13.Not Enough
 
Лог создания рипа
Exact Audio Copy V1.1 from 23. June 2015
EAC extraction logfile from 16. November 2015, 2:47
Annette Peacock / I Have No Feelings
Used drive : Optiarc DVD+-RW AD-7560S Adapter: 1 ID: 0
Read mode : Secure
Utilize accurate stream : Yes
Defeat audio cache : Yes
Make use of C2 pointers : No
Read offset correction : 6
Overread into Lead-In and Lead-Out : No
Fill up missing offset samples with silence : Yes
Delete leading and trailing silent blocks : No
Null samples used in CRC calculations : Yes
Used interface : Native Win32 interface for Win NT & 2000
Gap handling : Appended to previous track
Used output format : User Defined Encoder
Selected bitrate : 1024 kBit/s
Quality : High
Add ID3 tag : No
Command line compressor : C:\Program Files\Exact Audio Copy\Flac\flac.exe
Additional command line options : -8 -V -T "ARTIST=%artist%" -T "TITLE=%title%" -T "ALBUM=%albumtitle%" -T "DATE=%year%" -T "TRACKNUMBER=%tracknr%" -T "GENRE=%genre%" -T "PERFORMER=%albuminterpret%" -T "COMPOSER=%composer%" %haslyrics%--tag-from-file=LYRICS="%lyricsfile%"%haslyrics% -T "ALBUMARTIST=%albumartist%" -T "DISCNUMBER=%cdnumber%" -T "TOTALDISCS=%totalcds%" -T "TOTALTRACKS=%numtracks%" -T "COMMENT=%comment%" %source% -o %dest%
TOC of the extracted CD
Track | Start | Length | Start sector | End sector
---------------------------------------------------------
1 | 0:00.32 | 1:55.70 | 32 | 8726
2 | 1:56.27 | 1:47.58 | 8727 | 16809
3 | 3:44.10 | 2:33.60 | 16810 | 28344
4 | 6:17.70 | 3:54.57 | 28345 | 45951
5 | 10:12.52 | 2:56.48 | 45952 | 59199
6 | 13:09.25 | 5:03.37 | 59200 | 81961
7 | 18:12.62 | 2:05.63 | 81962 | 91399
8 | 20:18.50 | 2:32.07 | 91400 | 102806
9 | 22:50.57 | 0:57.13 | 102807 | 107094
10 | 23:47.70 | 2:11.60 | 107095 | 116979
11 | 25:59.55 | 3:59.15 | 116980 | 134919
12 | 29:58.70 | 2:13.57 | 134920 | 144951
13 | 32:12.52 | 2:06.35 | 144952 | 154436
Track 1
Filename C:\EAC\01 - Nothing Ever Was, Anyway.wav
Pre-gap length 0:00:02.42
Peak level 74.3 %
Extraction speed 1.8 X
Track quality 100.0 %
Test CRC 8D367372
Copy CRC 8D367372
Accurately ripped (confidence 1) [431DA8C2] (AR v1)
Copy OK
Track 2
Filename C:\EAC\02 - Butterflies.wav
Peak level 78.0 %
Extraction speed 1.9 X
Track quality 100.0 %
Test CRC 66DCFBB4
Copy CRC 66DCFBB4
Accurately ripped (confidence 1) [F0D9ED95] (AR v1)
Copy OK
Track 3
Filename C:\EAC\03 - I'm Not Perfect.wav
Peak level 76.4 %
Extraction speed 2.2 X
Track quality 100.0 %
Test CRC 7F82EAC3
Copy CRC 7F82EAC3
Accurately ripped (confidence 1) [1367487E] (AR v1)
Copy OK
Track 4
Filename C:\EAC\04 - I Have No Feelings.wav
Peak level 80.0 %
Extraction speed 2.5 X
Track quality 100.0 %
Test CRC E649FC0C
Copy CRC E649FC0C
Accurately ripped (confidence 1) [BAA83ED5] (AR v1)
Copy OK
Track 5
Filename C:\EAC\05 - The Cynic.wav
Peak level 76.8 %
Extraction speed 2.2 X
Track quality 99.9 %
Test CRC 8FFAFF3F
Copy CRC 8FFAFF3F
Accurately ripped (confidence 1) [C0A899F6] (AR v1)
Copy OK
Track 6
Filename C:\EAC\06 - The Carousel.wav
Peak level 64.7 %
Extraction speed 3.0 X
Track quality 100.0 %
Test CRC FA8C5821
Copy CRC FA8C5821
Accurately ripped (confidence 1) [6BB4340E] (AR v1)
Copy OK
Track 7
Filename C:\EAC\07 - You've Left Me.wav
Peak level 85.0 %
Extraction speed 2.2 X
Track quality 99.9 %
Test CRC 861AB381
Copy CRC 861AB381
Accurately ripped (confidence 1) [21D7F53D] (AR v1)
Copy OK
Track 8
Filename C:\EAC\08 - Sincereless.wav
Peak level 72.0 %
Extraction speed 2.9 X
Track quality 100.0 %
Test CRC C7F79E23
Copy CRC C7F79E23
Accurately ripped (confidence 1) [711E98FC] (AR v1)
Copy OK
Track 9
Filename C:\EAC\09 - Freefall.wav
Peak level 56.2 %
Extraction speed 2.2 X
Track quality 100.0 %
Test CRC 1A8DD84B
Copy CRC 1A8DD84B
Accurately ripped (confidence 1) [52BD8ACA] (AR v1)
Copy OK
Track 10
Filename C:\EAC\10 - This Almost Spring.wav
Peak level 64.4 %
Extraction speed 2.4 X
Track quality 99.9 %
Test CRC F5551605
Copy CRC F5551605
Accurately ripped (confidence 1) [A76EAF0B] (AR v1)
Copy OK
Track 11
Filename C:\EAC\11 - The Feeling's Free.wav
Peak level 67.3 %
Extraction speed 3.4 X
Track quality 100.0 %
Test CRC 87E1CA75
Copy CRC 87E1CA75
Accurately ripped (confidence 1) [A9B9C92E] (AR v1)
Copy OK
Track 12
Filename C:\EAC\12 - A Personal Revolution.wav
Peak level 66.9 %
Extraction speed 2.6 X
Track quality 99.9 %
Test CRC 8971C42F
Copy CRC 8971C42F
Accurately ripped (confidence 1) [6A8E3A60] (AR v1)
Copy OK
Track 13
Filename C:\EAC\13 - Not Enough.wav
Peak level 85.4 %
Extraction speed 3.2 X
Track quality 100.0 %
Test CRC BE5FD749
Copy CRC BE5FD749
Accurately ripped (confidence 1) [5751E271] (AR v1)
Copy OK
All tracks accurately ripped
No errors occurred
End of status report
---- CUETools DB Plugin V2.1.6
[CTDB TOCID: BJGdqasFlfXLTzb73fWZMz5DU10-] found
Submit result: already submitted
Track | CTDB Status
1 | (3/3) Accurately ripped
2 | (3/3) Accurately ripped
3 | (3/3) Accurately ripped
4 | (3/3) Accurately ripped
5 | (3/3) Accurately ripped
6 | (3/3) Accurately ripped
7 | (3/3) Accurately ripped
8 | (3/3) Accurately ripped
9 | (3/3) Accurately ripped
10 | (3/3) Accurately ripped
11 | (3/3) Accurately ripped
12 | (3/3) Accurately ripped
13 | (3/3) Accurately ripped
==== Log checksum E34D94E4E80BC07AA957BE2451D6CD1719C599759E8CE7F6E20E9D8FF6E60FEF ====
 
Содержание индексной карты (.CUE)
REM GENRE Rock
REM DATE 1986
REM DISCID 9C080B0D
REM COMMENT "ExactAudioCopy v1.1"
CATALOG 0000000000000
PERFORMER "Annette Peacock"
TITLE "I Have No Feelings"
FILE "01 - Nothing Ever Was, Anyway.wav" WAVE
TRACK 01 AUDIO
TITLE "Nothing Ever Was, Anyway"
PERFORMER "Annette Peacock"
PREGAP 00:00:32
INDEX 01 00:00:00
FILE "02 - Butterflies.wav" WAVE
TRACK 02 AUDIO
TITLE "Butterflies"
PERFORMER "Annette Peacock"
INDEX 01 00:00:00
FILE "03 - I'm Not Perfect.wav" WAVE
TRACK 03 AUDIO
TITLE "I'm Not Perfect"
PERFORMER "Annette Peacock"
INDEX 01 00:00:00
FILE "04 - I Have No Feelings.wav" WAVE
TRACK 04 AUDIO
TITLE "I Have No Feelings"
PERFORMER "Annette Peacock"
INDEX 01 00:00:00
FILE "05 - The Cynic.wav" WAVE
TRACK 05 AUDIO
TITLE "The Cynic"
PERFORMER "Annette Peacock"
INDEX 01 00:00:00
FILE "06 - The Carousel.wav" WAVE
TRACK 06 AUDIO
TITLE "The Carousel"
PERFORMER "Annette Peacock"
INDEX 01 00:00:00
FILE "07 - You've Left Me.wav" WAVE
TRACK 07 AUDIO
TITLE "You've Left Me"
PERFORMER "Annette Peacock"
INDEX 01 00:00:00
FILE "08 - Sincereless.wav" WAVE
TRACK 08 AUDIO
TITLE "Sincereless"
PERFORMER "Annette Peacock"
INDEX 01 00:00:00
FILE "09 - Freefall.wav" WAVE
TRACK 09 AUDIO
TITLE "Freefall"
PERFORMER "Annette Peacock"
INDEX 01 00:00:00
FILE "10 - This Almost Spring.wav" WAVE
TRACK 10 AUDIO
TITLE "This Almost Spring"
PERFORMER "Annette Peacock"
INDEX 01 00:00:00
FILE "11 - The Feeling's Free.wav" WAVE
TRACK 11 AUDIO
TITLE "The Feeling's Free"
PERFORMER "Annette Peacock"
INDEX 01 00:00:00
FILE "12 - A Personal Revolution.wav" WAVE
TRACK 12 AUDIO
TITLE "A Personal Revolution"
PERFORMER "Annette Peacock"
INDEX 01 00:00:00
FILE "13 - Not Enough.wav" WAVE
TRACK 13 AUDIO
TITLE "Not Enough"
PERFORMER "Annette Peacock"
INDEX 01 00:00:00
 
Состав
Engineer [Sound] – Benjamin Allen
Painting – Alfreda Benje*
Percussion – Roger Turner
Producer – Annette Peacock
Vocals, Bass, Keyboards, Toy [Some Toys], Programmed By – Annette Peacock
Notes
1989 Ironicrecords © 1986 Vicious Music
По всем вопросам пишите личное сообщение пользователю M0p94ok.
18:07
129
Нет комментариев. Ваш будет первым!