Вы используете незарегистрированную версию компонента "Вкладки"!

Поиск

(Avant-Garde Jazz) [CD] Parti & Minut (Johan Norin, Per-Ake Holmlander, Christopher Cantillo) - Dalig sikt och regn - 2015, FLAC (tracks+.cue), lossless

(Avant-Garde Jazz) [CD] Parti & Minut (Johan Norin, Per-Ake Holmlander, Christopher Cantillo) - Dalig sikt och regn - 2015, FLAC (tracks+.cue), lossless
Треклист:
Parti & Minut - Dålig sikt och regn
Жанр: Avant-Garde Jazz
Носитель: CD
Страна-производитель диска (релиза): Sweden
Год издания: 2015
Издатель (лейбл): El Dingo Records
Номер по каталогу: ELDCD 07
Аудиокодек: FLAC (*.flac)
Тип рипа: tracks+.cue
Битрейт аудио: lossless
Продолжительность: 00:34:26
Источник (релизер): what.cd / спасибо kivius
Наличие сканов в содержимом раздачи: да, низкого качества
Треклист:
1. Blues för oss (02:34)
2. Kul för dig (02:44)
3. Baktanke (02:30)
4. Dazzle (04:17)
5. Tjocka (02:53)
6. African Walk (03:21)
7. John S. (04:08)
8. Man vänjer sig (02:54)
9. For Fats/Mama Mae (03:48)
10. Soptippen (03:56)
11. Två och...lite till (01:16)
Доп. информация:
Musicians:
Johan Norin - trumpet
Per-Åke Holmlander - tuba
Christopher Cantillo - drums
Recorded at Pannrummet, Stockholm 2014/2015 by Gustav Rådström. Mixed by August Wanngren. Mastered by Mats Äleklint
Parti & Minut - Dålig sikt och regn eldingorecords.com
 
... photo ...
 
Лог создания рипа
Exact Audio Copy V1.0 beta 4 from 7. December 2014
EAC extraction logfile from 2. November 2015, 14:43
Parti & Minut / Dålig sikt och regn
Used drive : TSSTcorpCDDVDW SE-208DB Adapter: 1 ID: 1
Read mode : Secure
Utilize accurate stream : Yes
Defeat audio cache : Yes
Make use of C2 pointers : No
Read offset correction : 6
Overread into Lead-In and Lead-Out : No
Fill up missing offset samples with silence : Yes
Delete leading and trailing silent blocks : No
Null samples used in CRC calculations : Yes
Used interface : Native Win32 interface for Win NT & 2000
Gap handling : Appended to previous track
Used output format : User Defined Encoder
Selected bitrate : 1024 kBit/s
Quality : High
Add ID3 tag : No
Command line compressor : C:\Program Files (x86)\Exact Audio Copy\Flac\flac.exe
Additional command line options : -8 -V -T "ARTIST=%artist%" -T "TITLE=%title%" -T "ALBUM=%albumtitle%" -T "DATE=%year%" -T "TRACKNUMBER=%tracknr%" -T "GENRE=%genre%" -T "PERFORMER=%albuminterpret%" -T "COMPOSER=%composer%" %haslyrics%--tag-from-file=LYRICS="%lyricsfile%"%haslyrics% -T "ALBUMARTIST=%albumartist%" -T "DISCNUMBER=%cdnumber%" -T "TOTALDISCS=%totalcds%" -T "TOTALTRACKS=%numtracks%" -T "COMMENT=%comment%" %source% -o %dest%
TOC of the extracted CD
Track | Start | Length | Start sector | End sector
---------------------------------------------------------
1 | 0:00.00 | 2:34.45 | 0 | 11594
2 | 2:34.45 | 2:44.27 | 11595 | 23921
3 | 5:18.72 | 2:30.08 | 23922 | 35179
4 | 7:49.05 | 4:17.39 | 35180 | 54493
5 | 12:06.44 | 2:53.19 | 54494 | 67487
6 | 14:59.63 | 3:21.42 | 67488 | 82604
7 | 18:21.30 | 4:08.02 | 82605 | 101206
8 | 22:29.32 | 2:54.38 | 101207 | 114294
9 | 25:23.70 | 3:48.47 | 114295 | 131441
10 | 29:12.42 | 3:56.36 | 131442 | 149177
11 | 33:09.03 | 1:16.73 | 149178 | 154950
Track 1
Filename C:\Parti & Minut - Dalig Sikt och Regn (2015) [FLAC]\01 Blues för oss.wav
Pre-gap length 0:00:02.00
Peak level 97.7 %
Extraction speed 2.2 X
Track quality 100.0 %
Test CRC 47083E72
Copy CRC 47083E72
Track not present in AccurateRip database
Copy OK
Track 2
Filename C:\Parti & Minut - Dalig Sikt och Regn (2015) [FLAC]\02 Kul för dig.wav
Pre-gap length 0:00:02.00
Peak level 97.7 %
Extraction speed 1.8 X
Track quality 99.9 %
Test CRC 3592263C
Copy CRC 3592263C
Track not present in AccurateRip database
Copy OK
Track 3
Filename C:\Parti & Minut - Dalig Sikt och Regn (2015) [FLAC]\03 Baktanke.wav
Pre-gap length 0:00:02.00
Peak level 97.9 %
Extraction speed 2.5 X
Track quality 100.0 %
Test CRC 4ECC1CDF
Copy CRC 4ECC1CDF
Track not present in AccurateRip database
Copy OK
Track 4
Filename C:\Parti & Minut - Dalig Sikt och Regn (2015) [FLAC]\04 Dazzle.wav
Pre-gap length 0:00:02.00
Peak level 99.0 %
Extraction speed 2.8 X
Track quality 100.0 %
Test CRC 0B2F36B3
Copy CRC 0B2F36B3
Track not present in AccurateRip database
Copy OK
Track 5
Filename C:\Parti & Minut - Dalig Sikt och Regn (2015) [FLAC]\05 Tjocka.wav
Pre-gap length 0:00:02.00
Peak level 97.7 %
Extraction speed 2.2 X
Track quality 99.9 %
Test CRC 81F08216
Copy CRC 81F08216
Track not present in AccurateRip database
Copy OK
Track 6
Filename C:\Parti & Minut - Dalig Sikt och Regn (2015) [FLAC]\06 African Walk.wav
Pre-gap length 0:00:02.00
Peak level 97.8 %
Extraction speed 3.1 X
Track quality 100.0 %
Test CRC D43DE6B8
Copy CRC D43DE6B8
Track not present in AccurateRip database
Copy OK
Track 7
Filename C:\Parti & Minut - Dalig Sikt och Regn (2015) [FLAC]\07 John S.wav
Pre-gap length 0:00:02.00
Peak level 97.7 %
Extraction speed 3.3 X
Track quality 100.0 %
Test CRC 169B2A3E
Copy CRC 169B2A3E
Track not present in AccurateRip database
Copy OK
Track 8
Filename C:\Parti & Minut - Dalig Sikt och Regn (2015) [FLAC]\08 Man vänjer sig.wav
Pre-gap length 0:00:02.00
Peak level 97.7 %
Extraction speed 3.3 X
Track quality 100.0 %
Test CRC 19252809
Copy CRC 19252809
Track not present in AccurateRip database
Copy OK
Track 9
Filename C:\Parti & Minut - Dalig Sikt och Regn (2015) [FLAC]\09 For Fats,Mama Mae.wav
Pre-gap length 0:00:02.00
Peak level 97.7 %
Extraction speed 3.6 X
Track quality 100.0 %
Test CRC 385D08D7
Copy CRC 385D08D7
Track not present in AccurateRip database
Copy OK
Track 10
Filename C:\Parti & Minut - Dalig Sikt och Regn (2015) [FLAC]\10 Soptippen.wav
Pre-gap length 0:00:02.00
Peak level 82.3 %
Extraction speed 3.7 X
Track quality 100.0 %
Test CRC 1DB4F2D5
Copy CRC 1DB4F2D5
Track not present in AccurateRip database
Copy OK
Track 11
Filename C:\Parti & Minut - Dalig Sikt och Regn (2015) [FLAC]\11 Två och…lite till.wav
Pre-gap length 0:00:01.00
Peak level 97.8 %
Extraction speed 3.0 X
Track quality 100.0 %
Test CRC 2EBD373C
Copy CRC 2EBD373C
Track not present in AccurateRip database
Copy OK
None of the tracks are present in the AccurateRip database
No errors occurred
End of status report
---- CUETools DB Plugin V2.1.4
[CTDB TOCID: HjiyC1gY_tZx8Kyj0R7QubazTkM-] disk not present in database
Submit result: HjiyC1gY_tZx8Kyj0R7QubazTkM- has been uploaded
==== Log checksum 3485FBA49AA1E82DD6E6CB05DA081DA47B825AF2655D081213934C8AD0B97262 ====
 
Содержание индексной карты (.CUE)
REM GENRE Jazz
REM DATE 2015
REM DISCID 7B08120B
REM COMMENT "ExactAudioCopy v1.0b4"
PERFORMER "Parti & Minut"
TITLE "Dalig sikt och regn"
FILE "01 Blues for oss.wav" WAVE
TRACK 01 AUDIO
TITLE "Blues for oss"
PERFORMER "Parti & Minut"
ISRC SEXQG1500201
INDEX 01 00:00:00
TRACK 02 AUDIO
TITLE "Kul for dig"
PERFORMER "Parti & Minut"
ISRC SEXQG1500202
INDEX 00 02:32:45
FILE "02 Kul for dig.wav" WAVE
INDEX 01 00:00:00
TRACK 03 AUDIO
TITLE "Baktanke"
PERFORMER "Parti & Minut"
ISRC SEXQG1500203
INDEX 00 02:42:27
FILE "03 Baktanke.wav" WAVE
INDEX 01 00:00:00
TRACK 04 AUDIO
TITLE "Dazzle"
PERFORMER "Parti & Minut"
ISRC SEXQG1500204
INDEX 00 02:28:08
FILE "04 Dazzle.wav" WAVE
INDEX 01 00:00:00
TRACK 05 AUDIO
TITLE "Tjocka"
PERFORMER "Parti & Minut"
ISRC SEXQG1500205
INDEX 00 04:15:39
FILE "05 Tjocka.wav" WAVE
INDEX 01 00:00:00
TRACK 06 AUDIO
TITLE "African Walk"
PERFORMER "Parti & Minut"
ISRC SEXQG1500206
INDEX 00 02:51:19
FILE "06 African Walk.wav" WAVE
INDEX 01 00:00:00
TRACK 07 AUDIO
TITLE "John S"
PERFORMER "Parti & Minut"
ISRC SEXQG1500207
INDEX 00 03:19:42
FILE "07 John S.wav" WAVE
INDEX 01 00:00:00
TRACK 08 AUDIO
TITLE "Man vanjer sig"
PERFORMER "Parti & Minut"
ISRC SEXQG1500208
INDEX 00 04:06:02
FILE "08 Man vanjer sig.wav" WAVE
INDEX 01 00:00:00
TRACK 09 AUDIO
TITLE "For Fats - Mama Mae"
PERFORMER "Parti & Minut"
ISRC SEXQG1500209
INDEX 00 02:52:38
FILE "09 For Fats - Mama Mae.wav" WAVE
INDEX 01 00:00:00
TRACK 10 AUDIO
TITLE "Soptippen"
PERFORMER "Parti & Minut"
ISRC SEXQG1500210
INDEX 00 03:46:47
FILE "10 Soptippen.wav" WAVE
INDEX 01 00:00:00
TRACK 11 AUDIO
TITLE "Tva och...lite till"
PERFORMER "Parti & Minut"
ISRC SEXQG1500211
INDEX 00 03:55:36
FILE "11 Tva och...lite till.wav" WAVE
INDEX 01 00:00:00
По всем вопросам пишите личное сообщение пользователю M0p94ok.
16:38
201
Нет комментариев. Ваш будет первым!