Вы используете незарегистрированную версию компонента "Вкладки"!

Поиск

(Avant-Garde Jazz) [CD] Max Johnson Trio (Kirk Knuffke, Ziv Ravitz) - Something Familiar - 2015, FLAC (tracks+.cue), lossless

(Avant-Garde Jazz) [CD] Max Johnson Trio (Kirk Knuffke, Ziv Ravitz) - Something Familiar - 2015, FLAC (tracks+.cue), lossless
Треклист:
SOMETHING
FAMILIAR
Max Johnson Trio Жанр: Avant-Garde Jazz
Страна-производитель диска: EU
Год издания: 2015
Издатель (лейбл): Fresh Sound New Talent
Номер по каталогу: FSNT 471
Страна исполнителя (группы): USA
Аудиокодек: FLAC (*.flac)
Тип рипа: tracks+.cue
Битрейт аудио: lossless
Продолжительность: 39:46
Источник (релизер): спасибо Gousasin
Наличие сканов: да
Треклист:
01. Cindoze
02. Blips and Bloops
03. Cold Blooded
04. Little Arnie
05. Les Vague
06. Hammer Song
07. Something Familiar
08. Wind Song
 
Лог создания рипа
Exact Audio Copy V1.1 from 23. June 2015
EAC extraction logfile from 6. July 2015, 15:44
Max Johnson Trio / Something Familiar
Used drive : SlimtypeeNAU508 5 Adapter: 1 ID: 1
Read mode : Secure
Utilize accurate stream : Yes
Defeat audio cache : Yes
Make use of C2 pointers : No
Read offset correction : 6
Overread into Lead-In and Lead-Out : No
Fill up missing offset samples with silence : Yes
Delete leading and trailing silent blocks : No
Null samples used in CRC calculations : Yes
Used interface : Native Win32 interface for Win NT & 2000
Gap handling : Appended to previous track
Used output format : User Defined Encoder
Selected bitrate : 768 kBit/s
Quality : High
Add ID3 tag : No
Command line compressor : C:\Program Files (x86)\Exact Audio Copy\Flac\flac.exe
Additional command line options : -8 -V -T "ARTIST=%artist%" -T "TITLE=%title%" -T "ALBUM=%albumtitle%" -T "DATE=%year%" -T "TRACKNUMBER=%tracknr%" -T "TOTALTRACKS=%numtracks%" -T "GENRE=%genre%" -T "ALBUMARTIST=%albumartist%" -T "ALBUM ARTIST=%albumartist%" -T "COMMENT=EAC Secure Mode, Test & Copy, AccurateRip, FLAC -8" %source%
TOC of the extracted CD
Track | Start | Length | Start sector | End sector
---------------------------------------------------------
1 | 0:00.00 | 7:37.72 | 0 | 34346
2 | 7:37.72 | 3:02.44 | 34347 | 48040
3 | 10:40.41 | 4:57.66 | 48041 | 70381
4 | 15:38.32 | 3:47.09 | 70382 | 87415
5 | 19:25.41 | 5:24.09 | 87416 | 111724
6 | 24:49.50 | 4:14.65 | 111725 | 130839
7 | 29:04.40 | 4:48.13 | 130840 | 152452
8 | 33:52.53 | 5:53.61 | 152453 | 178988
Track 1
Filename C:\EAC rips\01 - Cindoze.wav
Pre-gap length 0:00:02.00
Peak level 91.9 %
Extraction speed 2.6 X
Track quality 100.0 %
Test CRC 25BC4DAA
Copy CRC 25BC4DAA
Track not present in AccurateRip database
Copy OK
Track 2
Filename C:\EAC rips\02 - Blips and Bloops.wav
Peak level 100.0 %
Extraction speed 2.0 X
Track quality 99.9 %
Test CRC A9321761
Copy CRC A9321761
Track not present in AccurateRip database
Copy OK
Track 3
Filename C:\EAC rips\03 - Cold Blooded.wav
Peak level 100.0 %
Extraction speed 2.9 X
Track quality 100.0 %
Test CRC 14E2096B
Copy CRC 14E2096B
Track not present in AccurateRip database
Copy OK
Track 4
Filename C:\EAC rips\04 - Little Arnie.wav
Peak level 100.0 %
Extraction speed 3.0 X
Track quality 100.0 %
Test CRC 8CA86995
Copy CRC 8CA86995
Track not present in AccurateRip database
Copy OK
Track 5
Filename C:\EAC rips\05 - Les Vagues.wav
Peak level 63.1 %
Extraction speed 3.3 X
Track quality 100.0 %
Test CRC 2DA2CFBE
Copy CRC 2DA2CFBE
Track not present in AccurateRip database
Copy OK
Track 6
Filename C:\EAC rips\06 - Hammer Song.wav
Peak level 100.0 %
Extraction speed 3.4 X
Track quality 100.0 %
Test CRC 8409A4F0
Copy CRC 8409A4F0
Track not present in AccurateRip database
Copy OK
Track 7
Filename C:\EAC rips\07 - Something Familiar.wav
Peak level 97.6 %
Extraction speed 3.1 X
Track quality 99.9 %
Test CRC 2F34BF39
Copy CRC 2F34BF39
Track not present in AccurateRip database
Copy OK
Track 8
Filename C:\EAC rips\08 - Wind Song.wav
Peak level 65.2 %
Extraction speed 3.9 X
Track quality 100.0 %
Test CRC 756D9F47
Copy CRC 756D9F47
Track not present in AccurateRip database
Copy OK
None of the tracks are present in the AccurateRip database
No errors occurred
End of status report
---- CUETools DB Plugin V2.1.6
[CTDB TOCID: gUDzEOv4sLooHzgoDUQAwd.DI_U-] found
Submit result: already submitted
Track | CTDB Status
1 | (1/1) Accurately ripped
2 | (1/1) Accurately ripped
3 | (1/1) Accurately ripped
4 | (1/1) Accurately ripped
5 | (1/1) Accurately ripped
6 | (1/1) Accurately ripped
7 | (1/1) Accurately ripped
8 | (1/1) Accurately ripped
==== Log checksum 77B73A9A416036180FA81768949A795EC3501A82D3A0FCEEFA74C368C78D75CC ====
 
Содержание индексной карты (.CUE)
REM GENRE "Fresh Sound New Talent FSNT 471"
REM DATE 2015
REM DISCID 66095208
REM COMMENT "ExactAudioCopy v1.1"
PERFORMER "Max Johnson Trio"
TITLE "Something Familiar"
FILE "01 - Cindoze.wav" WAVE
TRACK 01 AUDIO
TITLE "Cindoze"
PERFORMER "Max Johnson Trio"
ISRC ES7711547101
INDEX 01 00:00:00
FILE "02 - Blips and Bloops.wav" WAVE
TRACK 02 AUDIO
TITLE "Blips and Bloops"
PERFORMER "Max Johnson Trio"
ISRC ES7711547102
INDEX 01 00:00:00
FILE "03 - Cold Blooded.wav" WAVE
TRACK 03 AUDIO
TITLE "Cold Blooded"
PERFORMER "Max Johnson Trio"
ISRC ES7711547103
INDEX 01 00:00:00
FILE "04 - Little Arnie.wav" WAVE
TRACK 04 AUDIO
TITLE "Little Arnie"
PERFORMER "Max Johnson Trio"
ISRC ES7711547104
INDEX 01 00:00:00
FILE "05 - Les Vagues.wav" WAVE
TRACK 05 AUDIO
TITLE "Les Vagues"
PERFORMER "Max Johnson Trio"
ISRC ES7711547105
INDEX 01 00:00:00
FILE "06 - Hammer Song.wav" WAVE
TRACK 06 AUDIO
TITLE "Hammer Song"
PERFORMER "Max Johnson Trio"
ISRC ES7711547106
INDEX 01 00:00:00
FILE "07 - Something Familiar.wav" WAVE
TRACK 07 AUDIO
TITLE "Something Familiar"
PERFORMER "Max Johnson Trio"
ISRC ES7711547107
INDEX 01 00:00:00
FILE "08 - Wind Song.wav" WAVE
TRACK 08 AUDIO
TITLE "Wind Song"
PERFORMER "Max Johnson Trio"
ISRC ES7711547108
INDEX 01 00:00:00
 
Об альбоме
New York native Max Johnson does not appear to require sleep. The bassist/composer, whose career spans the wide terrain from the Trans-Siberian Orchestra to Lollapalooza to Anthony Braxton consistently delivers fresh, adventurous, high-quality music against an ambitious output. With his now-regular working trio of Kirk Knuffke on cornet and drummer Ziv Ravitz, the group has released their best work to date on Something Familiar.
As Johnson's star rises, so too does Knuffke's whose been drawing high spots in national polls with a performance resume that boasts of trombonist Roswell Rudd, bassist William Parker and pianist Uri Caine to name just a few. His solo career has been prolific as well, tackling more ambiguous works and the extension on themes from Thelonious Monk, Charles Mingus and Duke Ellington. Ravitz—whose credits include two releases with the Lee Konitz Quartet—is frequently in demand on the New York scene and is currently working with bassist Chris Lightcap in saxophonist Christoph Irniger's Trio.
With two previous releases, Elevated Vegetation (FMR Records, 2012) and The Invisible Trio (Fresh Sounds-New Talent, 2014), the Johnson-Knuffke-Ravitz trio has refined the art of assimilating clean melodies and extended techniques. Something Familiar opens with "Cindoze," a plaintive cornet joined shortly by Johnson's spare plucking before Ravitz kicks the piece into higher gear. Johnson's bass is deep, woody and very musical. He often brings to mind a hybrid of Dave Holland and William Parker in his uncanny ability to focus on a simultaneous approach to a balance of free improvisation and melody.
More abstract is "Blips and Bloops" with Knuffke utilizing the full range of the cornet, almost making the instrument speak in tongues. Similarly, "Cold Blooded" and "Little Arnie" feature fine and intricate extended solos from Johnson while remaining fully rooted in the avant-garde. "Les Vague"—with its mournful brass opening complimented by Johnson's bowed bass—is a beautifully melodic oasis in the midst of all the free improvisation of Something Familiar. "Hammer Song," another nice combination of melody and free playing, has pleasantly layered overlapping segments that bleed into the title track, an upbeat and leisurely piece propelled by Ravitz. The closing number, "Wind Song" enters as the title would indicate, quietly building on Knuffke and Johnson's contemplative drifting across the soundscape and tom-toms gently providing distant thunder.
A skill in and of itself is Johnson's ability to play powerfully without over-dominating the music. He, Knuffke and Ravitz have developed a sure-footed synergy and an empathetic relationship while meeting a high level of individual improvisation. Johnson wears three hats—as he often does—as composer, player and engineer and it's worth noting as the pristine sound quality becomes a fourth player in this complex music. These individual artists are well along the path to establishing legacies and Something Familiar is a great place to catch them along the way. (Karl Ackermann, AllAboutJazz)
 
Состав

Kirk Knuffke ★ cornet
Max Johnson ★ bass
Ziv Ravitz ★ drums
По всем вопросам пишите личное сообщение пользователю M0p94ok.
16:37
208
Нет комментариев. Ваш будет первым!