Вы используете незарегистрированную версию компонента "Вкладки"!

Поиск

(Avant-Garde Jazz, Big Band) [CD] Dolmen Orchestra (feat. John Surman & Michel Godard) - Sequenze Armoniche (Some Gregorian Reflections) - 2000, FLAC (tracks+.cue), lossless

(Avant-Garde Jazz, Big Band) [CD] Dolmen Orchestra (feat. John Surman & Michel Godard) - Sequenze Armoniche (Some Gregorian Reflections) - 2000, FLAC (tracks+.cue), lossless
Треклист:
Dolmen Orchestra (feat. John Surman & Michel Godard) / Sequenze Armoniche (Some Gregorian Reflections)
Жанр: Avant-Garde Jazz, Big Band
Носитель: CD
Страна-производитель диска: UK
Год издания: 2000
Издатель (лейбл): Leo Records
Номер по каталогу: CD LR 291
Страна: Italy
Аудиокодек: FLAC (*.flac)
Тип рипа: tracks+.cue
Битрейт аудио: lossless
Продолжительность: 76:14
Источник (релизер): свой фирменный диск
Наличие сканов в содержимом раздачи:
Треклист:
1. Sequenza 11:38
2. Wodoyotha 8:21
3. Contemplation For A Sacral Sequence 16:02
4. Ferma L'Ali 16:46
5. Sequenza Armonica 23:27
 
Лог создания рипа
Exact Audio Copy V1.0 beta 3 from 29. August 2011
EAC extraction logfile from 27. November 2013, 20:40
Dolmen Orchestra / "Sequenze Armoniche" (Some Gregorian Reflections)
Used drive : PIONEER DVD-RW DVR-115D Adapter: 0 ID: 0
Read mode : Secure
Utilize accurate stream : Yes
Defeat audio cache : Yes
Make use of C2 pointers : No
Read offset correction : 48
Overread into Lead-In and Lead-Out : No
Fill up missing offset samples with silence : Yes
Delete leading and trailing silent blocks : No
Null samples used in CRC calculations : Yes
Used interface : Installed external ASPI interface
Gap handling : Appended to previous track
Used output format : User Defined Encoder
Selected bitrate : 896 kBit/s
Quality : High
Add ID3 tag : No
Command line compressor : C:\Program Files\Exact Audio Copy\FLAC\FLAC.EXE
Additional command line options : -6 -V -T "ARTIST=%artist%" -T "TITLE=%title%" -T "ALBUM=%albumtitle%" -T "DATE=%year%" -T "TRACKNUMBER=%tracknr%" -T "GENRE=%genre%" -T "COMMENT=%comment%" -T "BAND=%albuminterpret%" -T "COMPOSER=%composer%" %haslyrics%--tag-from-file=LYRICS="%lyricsfile%"%haslyrics% -T "DISCNUMBER=%cdnumber%" -T "TOTALDISCS=%totalcds%" -T "TOTALTRACKS=%numtracks%" %hascover%--picture="%coverfile%"%hascover% %source% -o %dest%
TOC of the extracted CD
Track | Start | Length | Start sector | End sector
---------------------------------------------------------
1 | 0:00.00 | 11:38.44 | 0 | 52393
2 | 11:38.44 | 8:20.74 | 52394 | 89967
3 | 19:59.43 | 16:01.61 | 89968 | 162103
4 | 36:01.29 | 16:45.74 | 162104 | 237552
5 | 52:47.28 | 23:26.66 | 237553 | 343068
Track 1
Filename D:\zzz\01 - Sequenza.wav
Pre-gap length 0:00:02.00
Peak level 79.4 %
Extraction speed 5.6 X
Track quality 100.0 %
Test CRC AEF6E3EC
Copy CRC AEF6E3EC
Accurately ripped (confidence 1) [CE4F4C17] (AR v1)
Copy OK
Track 2
Filename D:\zzz\02 - Wodoyotha.wav
Pre-gap length 0:00:06.45
Peak level 77.6 %
Extraction speed 6.1 X
Track quality 99.9 %
Test CRC A42C46E5
Copy CRC A42C46E5
Accurately ripped (confidence 1) [0DC187B4] (AR v1)
Copy OK
Track 3
Filename D:\zzz\03 - Contemplation For A Sacral Sequence.wav
Pre-gap length 0:00:02.45
Peak level 83.0 %
Extraction speed 7.4 X
Track quality 99.9 %
Test CRC 47554F80
Copy CRC 47554F80
Accurately ripped (confidence 1) [78CF402E] (AR v1)
Copy OK
Track 4
Filename D:\zzz\04 - Ferma L'Ali.wav
Pre-gap length 0:00:06.45
Peak level 58.8 %
Extraction speed 8.7 X
Track quality 100.0 %
Test CRC 8815ECED
Copy CRC 8815ECED
Accurately ripped (confidence 1) [E2D9BA60] (AR v1)
Copy OK
Track 5
Filename D:\zzz\05 - Sequenza Armonica.wav
Pre-gap length 0:00:03.45
Peak level 94.8 %
Extraction speed 9.9 X
Track quality 100.0 %
Test CRC 073CD167
Copy CRC 073CD167
Accurately ripped (confidence 1) [1F32CC00] (AR v1)
Copy OK
All tracks accurately ripped
No errors occurred
End of status report
==== Log checksum A7F83C1C58420B1AE7B04BFF851384D8F03FCE8E604819830096D215AA19446A ====
 
Содержание индексной карты (.CUE)
REM GENRE "Big Band"
REM DATE 2000
REM DISCID 2C11DE05
REM COMMENT "ExactAudioCopy v1.0b3"
PERFORMER "Dolmen Orchestra"
TITLE "'Sequenze Armoniche' (Some Gregorian Reflections)"
FILE "01 - Sequenza.wav" WAVE
TRACK 01 AUDIO
TITLE "Sequenza"
PERFORMER "Dolmen Orchestra"
FLAGS DCP
INDEX 01 00:00:00
TRACK 02 AUDIO
TITLE "Wodoyotha"
PERFORMER "Dolmen Orchestra"
FLAGS DCP
INDEX 00 11:31:74
FILE "02 - Wodoyotha.wav" WAVE
INDEX 01 00:00:00
TRACK 03 AUDIO
TITLE "Contemplation For A Sacral Sequence"
PERFORMER "Dolmen Orchestra"
FLAGS DCP
INDEX 00 08:18:29
FILE "03 - Contemplation For A Sacral Sequence.wav" WAVE
INDEX 01 00:00:00
TRACK 04 AUDIO
TITLE "Ferma L'Ali"
PERFORMER "Dolmen Orchestra"
FLAGS DCP
INDEX 00 15:55:16
FILE "04 - Ferma L'Ali.wav" WAVE
INDEX 01 00:00:00
TRACK 05 AUDIO
TITLE "Sequenza Armonica"
PERFORMER "Dolmen Orchestra"
FLAGS DCP
INDEX 00 16:42:29
FILE "05 - Sequenza Armonica.wav" WAVE
INDEX 01 00:00:00
 
Лог проверки качества
d:\>d:\aucdtect -d/-m0 d:\zzz\*.wav
auCDtect: CD records authenticity detector, version 0.8.2
Copyright (c) 2004 Oleg Berngardt. All rights reserved.
Copyright (c) 2004 Alexander Djourik. All rights reserved.
------------------------------------------------------------
Processing file: [01. Sequenza.wav]
------------------------------------------------------------
This track looks like CDDA with probability 100%
------------------------------------------------------------
Processing file: [02. Wodoyotha.wav]
------------------------------------------------------------
This track looks like CDDA with probability 100%
------------------------------------------------------------
Processing file: [03. Contemplation For A Sacral Sequence.wav]
------------------------------------------------------------
This track looks like CDDA with probability 100%
------------------------------------------------------------
Processing file: [04. Ferma L'Ali.wav]
------------------------------------------------------------
This track looks like CDDA with probability 100%
------------------------------------------------------------
Processing file: [05. Sequenza Armonica.wav]
------------------------------------------------------------
This track looks like CDDA with probability 100%
------------------------------------------------------------
Final Conclusion:
------------------------------------------------------------
These tracks looks like CDDA with probability 100%
Доп. информация:
 
Album Info & AMG Review
(Marco Sannini) - 1
(Claudio Lugo) - 2
(Nico Marziliano) - 3
(Michel Godard) - 4
(Nicola Pisani) - 5
Produced by MIA and Jazz e Altro/Oltre il Jazz International Festival & Leo Feigin
Recorded live at "Jazz e Altro/Oltre il Jazz" - III & IV International Festivals in Molfetta (July 20, 1997), Bari (July 20, 1998) & Barletta (July 21, 1998) by Tommy Cavalieri & Pasquale Gennaccari
Mixed by Piero Schiavoni, Coltempo Studio, Rome
Mastered by Stan Wijnans at LMC Sound, London
Nicola Pisani's photo (page 7) by Francesco "Ninni" Pepe, other photos by Gianni Cataldi
Artwork by Lora Denis
This Italian jazz orchestra bases this recording on a very ambitious and adventurous concept: variations, interpretations, and expansions of notes from an apparently well-known Gregorian melody. Whether or not the tune is recognized is ultimately not so important. What is remarkable is the way in which this highly individualized ensemble incorporates ancient classical sonorities and melds them effectively with modern and even post-modern sensibilities. The results are not so much a fusion as an altogether new creation, and incredibly, one that surprises as it impresses. Very few of the 20-plus members of the Dolmen Orchestra are known outside their home in the Apulia region of Italy, though the amount of talent represented here is astonishing. Recorded from three live concerts on consecutive days, the pieces feature guests John Surnam on baritone saxophone and Michel Godard, each taking extended solos. Also featured are the operatic, modern vocals of Linda Bsiri. Each of the five pieces is of extended length, ranging from eight to 23 minutes, but there are very few lapses and, to the contrary, numerous moments of beauty, suspense, and even vision.
 
Состав
Pino Melfi, Marco Sannini, Alfredo Sette: trumpets
Franco Angiulo: trombone
Michele Marrano: french horn
Nino Bisceglie: tuba (1,3,4,5)
Paola Cicolella: flute
Nicola Puntillo: clarinet, bass clarinet
Vittorio Gallo, Felice Mezzina, Gaetano Partipilo: saxes
Pasquale Gadaleta: double bass
Antonio Dambrosio: drums, percussion
Aldo Bagnoni, Armanda Desiderj: percussion
Linda Bsiri: voice, sea trumpet (on 4)
Michel Godard: tuba (1,2,3,5), serpent (4)
John Surman: baritone (1,5) and soprano (2,3,4) saxes
Nicola Pisani: conducting
on 1: Vittorio Gallo, Marco Sannini: added percussion
on 2: Vito Mitoli: trumpet (instead of Pino Melfi); Enrico Del Gaudio: percussion (instead of Armanda Desideri)
on 3: all orchestra: voices
on 5: Giovannangelo De Gennaro: male voice, tampoura
По всем вопросам пишите личное сообщение пользователю M0p94ok.
21:04
186
Нет комментариев. Ваш будет первым!