Вы используете незарегистрированную версию компонента "Вкладки"!

Поиск

(Avant-Garde, Free Jazz) Spontaneous Music Ensemble: "Summer 1967" - 1967, APE (image+.cue), lossless

(Avant-Garde, Free Jazz) Spontaneous Music Ensemble: "Summer 1967" - 1967, APE (image+.cue), lossless
Треклист:
Spontaneous Music Ensemble - Summer 1967
Жанр: Avant-Garde, Free Jazz
Год выпуска диска: 1967
Производитель диска: EMANEM 4005
Аудио кодек: APE
Тип рипа: image+.cue
Битрейт аудио: lossless
Продолжительность: 67'14''
Трэклист:
1 - LISTENING TOGETHER 1 - 4:41
2 - LISTENING TOGETHER 2 - 8:41
3 - LISTENING TOGETHER 3 - 4:44
4 - LISTENING TOGETHER 4 - 4:26
5 - LISTENING TOGETHER 5 - 7:18
6 - FIRST COUSINS - 14:38
7 - SECOND COUSINS - 11:15
8 - ECHO CHAMBER MUSIC 1 - 5:05
9 - ECHO CHAMBER MUSIC 2 - 3:04
10 - ECHO CHAMBER MUSIC 3 - 2:12
All analogue recordings made in London
1-5: 1967 AUGUST 16
6-7: 1967 AUGUST 1 (?)
8-10: 1967 SEPTEMBER 17
Доп. информация: JOHN STEVENS percussion
EVAN PARKER soprano saxophone, tenor saxophone
PETER KOWALD double bass (on 6 & 7 only)
 
Отчет EAC
Exact Audio Copy V0.99 prebeta 4 from 23. January 2008
Отчёт EAC об извлечении, выполненном 28. апреля 2009, 1:13
Spontaneous Music Ensemble / Summer 1967
Дисковод: TSSTcorpCDDVDW SH-S203D Adapter: 3 ID: 0
Режим чтения : Достоверность
Использование точного потока : Да
Отключение кэша аудио : Да
Использование указателей C2 : Нет
Коррекция смещения при чтении : 6
Способность читать области Lead-in и Lead-out : Нет
Заполнение пропущенных сэмплов тишиной : Да
Удаление блоков с тишиной в начале и конце : Нет
При вычислениях CRC использовались нулевые сэмплы : Да
Интерфейс : Установленный внешний ASPI-интерфейс
Выходной формат : Внутренние WAV-операции
Формат сэмплов : 44.100 Гц; 16 бит; стерео
TOC извлечённого CD
Трек | Старт | Длительность | Начальный сектор | Конечный сектор
---------------------------------------------------------------------
1 | 0:00.00 | 4:49.01 | 0 | 21675
2 | 4:49.01 | 8:49.11 | 21676 | 61361
3 | 13:38.12 | 4:52.32 | 61362 | 83293
4 | 18:30.44 | 4:34.03 | 83294 | 103846
5 | 23:04.47 | 7:30.68 | 103847 | 137664
6 | 30:35.40 | 14:45.40 | 137665 | 204079
7 | 45:21.05 | 11:27.56 | 204080 | 255660
8 | 56:48.61 | 5:06.38 | 255661 | 278648
9 | 61:55.24 | 3:07.19 | 278649 | 292692
10 | 65:02.43 | 2:12.07 | 292693 | 302599
Характеристики диапазона извлечения и сообщения об ошибках
Выбранный диапазон
Имя файла F:\FOS\Music\Spontaneous Music Ensemble - Summer 1967\Spontaneous Music Ensemble - Summer 1967.wav
Пиковый уровень 99.8 %
Качество диапазона 100.0 %
CRC копии A70239F1
Копирование... OK
Ошибок не произошло
Конец отчёта
Any questions -> support@pro-jazz.com. По всем вопросам пишите -> support@pro-jazz.com
10:29
275
Нет комментариев. Ваш будет первым!