Вы используете незарегистрированную версию компонента "Вкладки"!

Поиск

(Avant-Garde, Free Jazz) Spontaneous Music Ensemble: Challenge (1966, 1967), APE (image+.cue), lossless

(Avant-Garde, Free Jazz) Spontaneous Music Ensemble: Challenge (1966, 1967), APE (image+.cue), lossless
Треклист:
Spontaneous Music Ensemble: Challenge (1966, 1967)
Жанр: Avant-Garde, Free Jazz
Год выпуска диска: 1966
Производитель диска: Emanem
Аудио кодек: APE
Тип рипа: image+.cue
Битрейт аудио: lossless
Продолжительность: 67'27''
Трэклист:
1 - E.D.'S MESSAGE - 4:08
2 - 2.B.ORNETTE - 2:07
3 - CLUB 66 - 8:37
4 - DAY OF RECKONING - 8:33
5 - END TO A BEGINNING - 2:42
6 - TRAVELLING TOGETHER - 9:10
7 - LITTLE RED HEAD - 3:52
8 - AFTER LISTENING - 8:10
9 - END TO A BEGINNING - 4:16
10 - DISTANT LITTLE SOUL - 15:13
All analogue studio recordings made in London by EDDIE KRAMER
1-9: 1966 MARCH
10: 1967 APRIL 22
Total time 67:34
1-4 & 6-9 originally issued in 1966 as Eyemark EMPL 1002
5 & 10 previously unissued
Доп. информация:
KENNY WHEELER flugelhorn (1 - 3 & 6 - 9)
PAUL RUTHERFORD trombone (1 - 9)
TREVOR WATTS alto saxophone, soprano saxophone, piccolo
BRUCE CALE double bass (2 - 8)
JEFF CLYNE double bass (1 & 9)
JOHN STEVENS drums & cymbals (except 7)
EVAN PARKER soprano saxophone (10)
CHRIS CAMBRIDGE double bass (10)
 
Отчет EAC
Exact Audio Copy V0.99 prebeta 4 from 23. January 2008
Отчёт EAC об извлечении, выполненном 28. апреля 2009, 1:00
SPONTANEOUS MUSIC ENSEMBLE / Challenge
Дисковод: TSSTcorpCDDVDW SH-S203D Adapter: 3 ID: 0
Режим чтения : Достоверность
Использование точного потока : Да
Отключение кэша аудио : Да
Использование указателей C2 : Нет
Коррекция смещения при чтении : 6
Способность читать области Lead-in и Lead-out : Нет
Заполнение пропущенных сэмплов тишиной : Да
Удаление блоков с тишиной в начале и конце : Нет
При вычислениях CRC использовались нулевые сэмплы : Да
Интерфейс : Установленный внешний ASPI-интерфейс
Выходной формат : Внутренние WAV-операции
Формат сэмплов : 44.100 Гц; 16 бит; стерео
TOC извлечённого CD
Трек | Старт | Длительность | Начальный сектор | Конечный сектор
---------------------------------------------------------------------
1 | 0:00.00 | 4:12.37 | 0 | 18936
2 | 4:12.37 | 2:11.68 | 18937 | 28829
3 | 6:24.30 | 8:40.72 | 28830 | 67901
4 | 15:05.27 | 8:37.45 | 67902 | 106721
5 | 23:42.72 | 2:46.13 | 106722 | 119184
6 | 26:29.10 | 9:14.02 | 119185 | 160736
7 | 35:43.12 | 3:56.00 | 160737 | 178436
8 | 39:39.12 | 8:14.56 | 178437 | 215542
9 | 47:53.68 | 4:24.39 | 215543 | 235381
10 | 52:18.32 | 15:13.58 | 235382 | 303914
Характеристики диапазона извлечения и сообщения об ошибках
Выбранный диапазон
Имя файла F:\FOS\Music\SPONTANEOUS MUSIC ENSEMBLE - Challenge\SPONTANEOUS MUSIC ENSEMBLE - Challenge.wav
Пиковый уровень 100.0 %
Качество диапазона 99.9 %
CRC копии 5D08620B
Копирование... OK
Ошибок не произошло
Конец отчёта
Any questions -> support@pro-jazz.com. По всем вопросам пишите -> support@pro-jazz.com
10:28
160
Нет комментариев. Ваш будет первым!