Вы используете незарегистрированную версию компонента "Вкладки"!

Поиск

(Avant-Garde / Free Jazz / Hopscotch) Yoni Kretzmer Trio - Nevertheless - 2010, FLAC (image+.cue) lossless

Треклист:
Yoni Kretzmer Trio - Nevertheless

Жанр: Avant-Garde / Free Jazz
Страна-производитель диска: USA
Год издания диска: 2010
Издатель (лейбл): Hopscotch HOP 22
Аудио кодек: FLAC (*.flac)
Тип рипа: image+.cue
Битрейт аудио: lossless
Продолжительность: 56:57
Источник (релизер): собственный рип
Наличие сканов в содержимом раздачи: нет
Yoni Kretzmer: tenor saxophone
Jason Ajemian: double bass
Mike Pride: drums
1. Looks Like Not
2. A New Start
3. Improv Two
4. Nevertheless
5. Something with Tango
6. Four Notes
7. What a Pity
8. Sort of Despair
9. Till We Got There
10. Four Notes Ending
Recorded by Jim Clouse at Park West Studios, Brooklyn, NY on November 5th, 2009.
 
Лог создания рипа
Exact Audio Copy V0.99 prebeta 4 from 23. January 2008
EAC extraction logfile from 17. November 2010, 22:00
Yoni Kretzmer Trio / Nevertheless
Used drive : TSSTcorpCD/DVDW SH-S182M Adapter: 2 ID: 1
Read mode : Secure
Utilize accurate stream : Yes
Defeat audio cache : Yes
Make use of C2 pointers : No
Read offset correction : 6
Overread into Lead-In and Lead-Out : No
Fill up missing offset samples with silence : Yes
Delete leading and trailing silent blocks : No
Null samples used in CRC calculations : Yes
Used interface : Installed external ASPI interface
Used output format : User Defined Encoder
Selected bitrate : 1024 kBit/s
Quality : High
Add ID3 tag : No
Command line compressor : C:\Program Files\Exact Audio Copy\Flac\flac.exe
Additional command line options : -6 -V -T "ARTIST=%a" -T "TITLE=%t" -T "ALBUM=%g" -T "DATE=%y" -T "TRACKNUMBER=%n" -T "GENRE=%m" -T "COMMENT=EAC FLAC -6" %s
TOC of the extracted CD
Track | Start | Length | Start sector | End sector
---------------------------------------------------------
1 | 0:00.00 | 4:32.28 | 0 | 20427
2 | 4:32.28 | 6:24.68 | 20428 | 49295
3 | 10:57.21 | 7:18.70 | 49296 | 82215
4 | 18:16.16 | 7:32.59 | 82216 | 116174
5 | 25:49.00 | 10:32.23 | 116175 | 163597
6 | 36:21.23 | 1:33.43 | 163598 | 170615
7 | 37:54.66 | 5:23.16 | 170616 | 194856
8 | 43:18.07 | 5:37.30 | 194857 | 220161
9 | 48:55.37 | 6:49.52 | 220162 | 250888
10 | 55:45.14 | 1:11.33 | 250889 | 256246
Range status and errors
Selected range
Filename C:\Users\Igor\Music\eac\Yoni Kretzmer Trio - Nevertheless.wav
Peak level 100.0 %
Range quality 100.0 %
Test CRC B51AE5A0
Copy CRC B51AE5A0
Copy OK
No errors occurred
AccurateRip summary
Track 1 not present in database
Track 2 not present in database
Track 3 not present in database
Track 4 not present in database
Track 5 not present in database
Track 6 not present in database
Track 7 not present in database
Track 8 not present in database
Track 9 not present in database
Track 10 not present in database
None of the tracks are present in the AccurateRip database
End of status report
По всем вопросам пишите личное сообщение пользователю M0p94ok.
05:39
163
Нет комментариев. Ваш будет первым!