Вы используете незарегистрированную версию компонента "Вкладки"!

Поиск

(Avant-Garde / Free Improvisation) Elliott Sharp - Octal: Book Two - 2010, FLAC (image+.cue) lossless

Треклист:
Elliott Sharp - Octal: Book Two

Жанр: Avant-Garde / Free Improvisation
Страна-производитель диска: Portugal
Год издания диска: 2010
Издатель (лейбл): Clean Feed CFG 004
Аудио кодек: FLAC (*.flac)
Тип рипа: image+.cue
Битрейт аудио: lossless
Продолжительность: 1:01:48
Источник (релизер): собственный рип
Наличие сканов в содержимом раздачи: нет
Elliott Sharp: Koll 8-string electroacoustic guitarbass
1. Graviton The Boson
2. Revelant
3. Fluctuation Of Horizon
4. Sequent
5. Eukaryon
6. P-Branes & D-Branes
7. Inverted Fields
Recorded, mixed and mastered at Studio zOaR, NYC by E#-July 2009.
 
Лог создания рипа
Exact Audio Copy V0.99 prebeta 4 from 23. January 2008
EAC extraction logfile from 15. October 2010, 21:40
Elliott Sharp / Octal: Book Two
Used drive : TSSTcorpCD/DVDW SH-S182M Adapter: 2 ID: 0
Read mode : Secure
Utilize accurate stream : Yes
Defeat audio cache : Yes
Make use of C2 pointers : No
Read offset correction : 6
Overread into Lead-In and Lead-Out : No
Fill up missing offset samples with silence : Yes
Delete leading and trailing silent blocks : No
Null samples used in CRC calculations : Yes
Used interface : Installed external ASPI interface
Used output format : User Defined Encoder
Selected bitrate : 1024 kBit/s
Quality : High
Add ID3 tag : No
Command line compressor : C:\Program Files\Exact Audio Copy\Flac\flac.exe
Additional command line options : -6 -V -T "ARTIST=%a" -T "TITLE=%t" -T "ALBUM=%g" -T "DATE=%y" -T "TRACKNUMBER=%n" -T "GENRE=%m" -T "COMMENT=EAC FLAC -6" %s
TOC of the extracted CD
Track | Start | Length | Start sector | End sector
---------------------------------------------------------
1 | 0:00.00 | 11:09.07 | 0 | 50181
2 | 11:09.07 | 5:27.41 | 50182 | 74747
3 | 16:36.48 | 8:04.38 | 74748 | 111085
4 | 24:41.11 | 7:24.58 | 111086 | 144443
5 | 32:05.69 | 5:43.07 | 144444 | 170175
6 | 37:49.01 | 11:29.15 | 170176 | 221865
7 | 49:18.16 | 12:29.36 | 221866 | 278076
Range status and errors
Selected range
Filename C:\Users\Igor\Music\eac\Elliott Sharp - Octal Book Two.wav
Peak level 97.6 %
Range quality 100.0 %
Test CRC 288FE6F9
Copy CRC 288FE6F9
Copy OK
No errors occurred
AccurateRip summary
Track 1 not present in database
Track 2 not present in database
Track 3 not present in database
Track 4 not present in database
Track 5 not present in database
Track 6 not present in database
Track 7 not present in database
None of the tracks are present in the AccurateRip database
End of status report
Any questions -> support@pro-jazz.com. По всем вопросам пишите -> support@pro-jazz.com
05:40
127
Нет комментариев. Ваш будет первым!