Вы используете незарегистрированную версию компонента "Вкладки"!

Поиск

(Avant-Garde, Free Improvisation, Parco della Musica) [CD] Fabrizio Bosso & Antonello Salis - Stunt - 2008, FLAC (tracks+.cue), lossless

(Avant-Garde, Free Improvisation, Parco della Musica) [CD] Fabrizio Bosso & Antonello Salis - Stunt - 2008, FLAC (tracks+.cue), lossless
Треклист:
Fabrizio Bosso & Antonello Salis / Stunt
Жанр: Avant-Garde, Free Improvisation, Parco della Musica
Носитель: CD
Страна-производитель диска: Italy
Год издания: 2008
Издатель (лейбл): Parco della Musica
Номер по каталогу: MPR 015CD
Аудиокодек: FLAC (*.flac)
Тип рипа: tracks+.cue
Битрейт аудио: lossless
Продолжительность: 57:05
Источник (релизер): я
Наличие сканов в содержимом раздачи: нет
Треклист:
01. Caduta libera (Bosso / Salis) 3:25
02. Body and Soul (Johnny Green) 4:52
03. Moschito’s Chase (Bosso / Salis) 5:26
04. Roma non fa la stupida stasera (Garinei / Giovannini / Trovajoli) 5:00
05. Tibet (Bosso / Salis) 4:25
06. Caravan (Tizol / Ellington) 3:55
07. Stregati (Bosso / Salis) 2:46
08. Georgia on My Mind (Carmichael / Gorrell) 4:27
09. Solo un incubo (Bosso / Salis) 2:15
10. Mack the Knife (Weill / Brecht) 5:44
11. Before Sunday (Bosso / Salis) 2:46
12. Domenica è sempre domenica (Garinei / Giovannini / Kramer) 4:17
13. Burst Blues (Bosso / Salis) 2:29
14. Bésame mucho (Velázquez) 5:18
Recorded on March 17th and 18th 2008 at Auditorium Parco della Musica, Rome, Italy.
Fabrizio Bosso – Trumpet & Electronics
Antonello Salis – Piano, Accordion, Percussion, Objects
 
Лог создания рипа
Exact Audio Copy V1.0 beta 3 from 29. August 2011
EAC extraction logfile from 22. February 2014, 22:06
Fabrizio Bosso & Antonello Salis / Stunt
Used drive : SlimtypeeNAU508 5 Adapter: 1 ID: 0
Read mode : Secure
Utilize accurate stream : Yes
Defeat audio cache : Yes
Make use of C2 pointers : No
Read offset correction : 6
Overread into Lead-In and Lead-Out : No
Fill up missing offset samples with silence : Yes
Delete leading and trailing silent blocks : No
Null samples used in CRC calculations : Yes
Used interface : Native Win32 interface for Win NT & 2000
Gap handling : Appended to previous track
Used output format : User Defined Encoder
Selected bitrate : 768 kBit/s
Quality : High
Add ID3 tag : No
Command line compressor : C:\Program Files (x86)\Exact Audio Copy\Flac\flac.exe
Additional command line options : -8 -V -T "ARTIST=%artist%" -T "TITLE=%title%" -T "ALBUM=%albumtitle%" -T "DATE=%year%" -T "TRACKNUMBER=%tracknr%" -T "GENRE=%genre%" -T "PERFORMER=%albuminterpret%" -T "COMPOSER=%composer%" -T "ALBUMARTIST=%albumartist%" -T "DISCNUMBER=%cdnumber%" -T "TOTALDISCS=%totalcds%" -T "TOTALTRACKS=%numtracks%" -T "COMMENT=%comment%" %source% -o %dest%
TOC of the extracted CD
Track | Start | Length | Start sector | End sector
---------------------------------------------------------
1 | 0:00.00 | 3:24.64 | 0 | 15363
2 | 3:24.64 | 4:52.34 | 15364 | 37297
3 | 8:17.23 | 5:25.58 | 37298 | 61730
4 | 13:43.06 | 4:59.64 | 61731 | 84219
5 | 18:42.70 | 4:24.57 | 84220 | 104076
6 | 23:07.52 | 3:54.41 | 104077 | 121667
7 | 27:02.18 | 2:45.38 | 121668 | 134080
8 | 29:47.56 | 4:27.24 | 134081 | 154129
9 | 34:15.05 | 2:15.20 | 154130 | 164274
10 | 36:30.25 | 5:43.60 | 164275 | 190059
11 | 42:14.10 | 2:46.01 | 190060 | 202510
12 | 45:00.11 | 4:17.08 | 202511 | 221793
13 | 49:17.19 | 2:29.15 | 221794 | 232983
14 | 51:46.34 | 5:18.30 | 232984 | 256863
Track 1
Filename C:\EAC rips\01 - Caduta libera.wav
Pre-gap length 0:00:02.00
Peak level 94.7 %
Extraction speed 1.7 X
Track quality 99.9 %
Test CRC AFBEEA4E
Copy CRC AFBEEA4E
Accurately ripped (confidence 1) [65C9D627] (AR v2)
Copy OK
Track 2
Filename C:\EAC rips\02 - Body and Soul.wav
Peak level 94.2 %
Extraction speed 2.4 X
Track quality 100.0 %
Test CRC A1C7380F
Copy CRC A1C7380F
Accurately ripped (confidence 1) [F1178EBB] (AR v2)
Copy OK
Track 3
Filename C:\EAC rips\03 - Moschito's Chase.wav
Peak level 93.8 %
Extraction speed 2.7 X
Track quality 100.0 %
Test CRC 2995293B
Copy CRC 2995293B
Accurately ripped (confidence 1) [9D45756C] (AR v2)
Copy OK
Track 4
Filename C:\EAC rips\04 - Roma non fa la stupida stasera.wav
Peak level 93.9 %
Extraction speed 2.9 X
Track quality 100.0 %
Test CRC 71F45E62
Copy CRC 71F45E62
Accurately ripped (confidence 1) [5961D339] (AR v2)
Copy OK
Track 5
Filename C:\EAC rips\05 - Tibet.wav
Peak level 94.3 %
Extraction speed 3.1 X
Track quality 100.0 %
Test CRC A20A109F
Copy CRC A20A109F
Accurately ripped (confidence 1) [C0BA54D5] (AR v2)
Copy OK
Track 6
Filename C:\EAC rips\06 - Caravan.wav
Peak level 94.0 %
Extraction speed 3.2 X
Track quality 100.0 %
Test CRC 2E94E3B1
Copy CRC 2E94E3B1
Accurately ripped (confidence 1) [83E2387B] (AR v2)
Copy OK
Track 7
Filename C:\EAC rips\07 - Stregati.wav
Peak level 92.2 %
Extraction speed 3.2 X
Track quality 100.0 %
Test CRC D5099D04
Copy CRC D5099D04
Accurately ripped (confidence 1) [43DD224C] (AR v2)
Copy OK
Track 8
Filename C:\EAC rips\08 - Georgia on My Mind.wav
Peak level 94.0 %
Extraction speed 3.5 X
Track quality 100.0 %
Test CRC CD5380D5
Copy CRC CD5380D5
Accurately ripped (confidence 1) [2EAEDEF2] (AR v2)
Copy OK
Track 9
Filename C:\EAC rips\09 - Solo un incubo.wav
Peak level 93.5 %
Extraction speed 3.2 X
Track quality 100.0 %
Test CRC 6F95EEB1
Copy CRC 6F95EEB1
Accurately ripped (confidence 1) [47EB5026] (AR v2)
Copy OK
Track 10
Filename C:\EAC rips\10 - Mack the Knife.wav
Peak level 87.8 %
Extraction speed 3.7 X
Track quality 100.0 %
Test CRC B957131D
Copy CRC B957131D
Accurately ripped (confidence 1) [E5BEBD46] (AR v2)
Copy OK
Track 11
Filename C:\EAC rips\11 - Before Sunday.wav
Peak level 70.8 %
Extraction speed 2.7 X
Track quality 99.9 %
Test CRC 5AF57224
Copy CRC 5AF57224
Accurately ripped (confidence 1) [41FBBC91] (AR v2)
Copy OK
Track 12
Filename C:\EAC rips\12 - Domenica è sempre domenica.wav
Peak level 96.9 %
Extraction speed 4.0 X
Track quality 100.0 %
Test CRC AC1E3943
Copy CRC AC1E3943
Accurately ripped (confidence 1) [5E6CF9A5] (AR v2)
Copy OK
Track 13
Filename C:\EAC rips\13 - Burst Blues.wav
Peak level 97.0 %
Extraction speed 3.6 X
Track quality 100.0 %
Test CRC 3E682A66
Copy CRC 3E682A66
Accurately ripped (confidence 1) [E277B1C7] (AR v2)
Copy OK
Track 14
Filename C:\EAC rips\14 - Bésame mucho.wav
Peak level 97.0 %
Extraction speed 3.7 X
Track quality 99.9 %
Test CRC 0DCAF6DA
Copy CRC 0DCAF6DA
Accurately ripped (confidence 1) [EFE5F81C] (AR v2)
Copy OK
All tracks accurately ripped
No errors occurred
End of status report
---- CUETools DB Plugin V2.1.4
[CTDB TOCID: tNtGrD9dHfuGL3Xts7MIbneeo3Q-] found
Submit result: tNtGrD9dHfuGL3Xts7MIbneeo3Q- has been confirmed
Track | CTDB Status
1 | (2/2) Accurately ripped
2 | (2/2) Accurately ripped
3 | (2/2) Accurately ripped
4 | (2/2) Accurately ripped
5 | (2/2) Accurately ripped
6 | (2/2) Accurately ripped
7 | (2/2) Accurately ripped
8 | (2/2) Accurately ripped
9 | (2/2) Accurately ripped
10 | (2/2) Accurately ripped
11 | (2/2) Accurately ripped
12 | (2/2) Accurately ripped
13 | (2/2) Accurately ripped
14 | (2/2) Accurately ripped
==== Log checksum 8BD4FAB8570F4E615D10387EC7C1F7B548C1B12E90ED6261282A9AFFCF5DB3E7 ====
 
Содержание индексной карты (.CUE)
REM GENRE Jazz
REM DATE 2008
REM DISCID CE0D600E
REM COMMENT "ExactAudioCopy v1.0b3"
PERFORMER "Fabrizio Bosso & Antonello Salis"
TITLE "Stunt"
FILE "01 - Caduta libera.wav" WAVE
TRACK 01 AUDIO
TITLE "Caduta libera"
PERFORMER "Fabrizio Bosso & Antonello Salis"
ISRC ITPDM0800184
FLAGS DCP
INDEX 01 00:00:00
FILE "02 - Body and Soul.wav" WAVE
TRACK 02 AUDIO
TITLE "Body and Soul"
PERFORMER "Fabrizio Bosso & Antonello Salis"
ISRC ITPDM0800185
FLAGS DCP
INDEX 01 00:00:00
FILE "03 - Moschito's Chase.wav" WAVE
TRACK 03 AUDIO
TITLE "Moschito's Chase"
PERFORMER "Fabrizio Bosso & Antonello Salis"
ISRC ITPDM0800186
FLAGS DCP
INDEX 01 00:00:00
FILE "04 - Roma non fa la stupida stasera.wav" WAVE
TRACK 04 AUDIO
TITLE "Roma non fa la stupida stasera"
PERFORMER "Fabrizio Bosso & Antonello Salis"
ISRC ITPDM0800187
FLAGS DCP
INDEX 01 00:00:00
FILE "05 - Tibet.wav" WAVE
TRACK 05 AUDIO
TITLE "Tibet"
PERFORMER "Fabrizio Bosso & Antonello Salis"
ISRC ITPDM0800188
FLAGS DCP
INDEX 01 00:00:00
FILE "06 - Caravan.wav" WAVE
TRACK 06 AUDIO
TITLE "Caravan"
PERFORMER "Fabrizio Bosso & Antonello Salis"
ISRC ITPDM0800189
FLAGS DCP
INDEX 01 00:00:00
FILE "07 - Stregati.wav" WAVE
TRACK 07 AUDIO
TITLE "Stregati"
PERFORMER "Fabrizio Bosso & Antonello Salis"
ISRC ITPDM0800190
FLAGS DCP
INDEX 01 00:00:00
FILE "08 - Georgia on My Mind.wav" WAVE
TRACK 08 AUDIO
TITLE "Georgia on My Mind"
PERFORMER "Fabrizio Bosso & Antonello Salis"
ISRC ITPDM0800191
FLAGS DCP
INDEX 01 00:00:00
FILE "09 - Solo un incubo.wav" WAVE
TRACK 09 AUDIO
TITLE "Solo un incubo"
PERFORMER "Fabrizio Bosso & Antonello Salis"
ISRC ITPDM0800192
FLAGS DCP
INDEX 01 00:00:00
FILE "10 - Mack the Knife.wav" WAVE
TRACK 10 AUDIO
TITLE "Mack the Knife"
PERFORMER "Fabrizio Bosso & Antonello Salis"
ISRC ITPDM0800193
FLAGS DCP
INDEX 01 00:00:00
FILE "11 - Before Sunday.wav" WAVE
TRACK 11 AUDIO
TITLE "Before Sunday"
PERFORMER "Fabrizio Bosso & Antonello Salis"
ISRC ITPDM0800194
FLAGS DCP
INDEX 01 00:00:00
FILE "12 - Domenica è sempre domenica.wav" WAVE
TRACK 12 AUDIO
TITLE "Domenica è sempre domenica"
PERFORMER "Fabrizio Bosso & Antonello Salis"
ISRC ITPDM0800195
FLAGS DCP
INDEX 01 00:00:00
FILE "13 - Burst Blues.wav" WAVE
TRACK 13 AUDIO
TITLE "Burst Blues"
PERFORMER "Fabrizio Bosso & Antonello Salis"
ISRC ITPDM0800196
FLAGS DCP
INDEX 01 00:00:00
FILE "14 - Bésame mucho.wav" WAVE
TRACK 14 AUDIO
TITLE "Bésame mucho"
PERFORMER "Fabrizio Bosso & Antonello Salis"
ISRC ITPDM0800197
FLAGS DCP
INDEX 01 00:00:00
Any questions -> support@pro-jazz.com. По всем вопросам пишите -> support@pro-jazz.com
23:48
147
Нет комментариев. Ваш будет первым!