Вы используете незарегистрированную версию компонента "Вкладки"!

Поиск

(Avant-Garde, Free Improvisation, ILK Music) [CD] Herb Robertson & Mark Solborg - [NOD•] - 2009, FLAC (tracks+.cue), lossless

(Avant-Garde, Free Improvisation, ILK Music) [CD] Herb Robertson & Mark Solborg - [NOD•] - 2009, FLAC (tracks+.cue), lossless
Треклист:
Herb Robertson & Mark Solborg / [NOD•]
Жанр: Avant-Garde, Free Improvisation, ILK Music
Носитель: CD
Страна-производитель диска: Denmark
Год издания: 2009
Издатель (лейбл): ILK Music
Номер по каталогу: ILK152CD
Аудиокодек: FLAC (*.flac)
Тип рипа: tracks+.cue
Битрейт аудио: lossless
Продолжительность: 49:06
Источник (релизер): я
Наличие сканов в содержимом раздачи: да
Треклист:
1. N.O.D. [night observation device] 2:33
2. At Bart Bok’s Place 2:48
3. Celestials 3:39
4. Crepuscule in the Land of Nod 8:33
5. Blisters Burn 2:24
6. Komplet Komplot [Perfect Conspiracy] 8:28
7. Fabular 8:07
8. Twisted Lip 5:49
9. Saint 6:45
All songs by Herb Robertson & Mark Solborg.
Recorded at On Location Studio, Copenhagen July 14th 2008.
Herb Robertson – Trumpets & Voice
Mark Solborg – Guitars
 
Лог создания рипа
Exact Audio Copy V1.0 beta 3 from 29. August 2011
EAC extraction logfile from 18. September 2014, 12:38
Herb Robertson & Mark Solborg / [NOD•]
Used drive : SlimtypeeNAU508 5 Adapter: 1 ID: 0
Read mode : Secure
Utilize accurate stream : Yes
Defeat audio cache : Yes
Make use of C2 pointers : No
Read offset correction : 6
Overread into Lead-In and Lead-Out : No
Fill up missing offset samples with silence : Yes
Delete leading and trailing silent blocks : No
Null samples used in CRC calculations : Yes
Used interface : Native Win32 interface for Win NT & 2000
Gap handling : Appended to previous track
Used output format : User Defined Encoder
Selected bitrate : 768 kBit/s
Quality : High
Add ID3 tag : No
Command line compressor : C:\Program Files (x86)\Exact Audio Copy\Flac\flac.exe
Additional command line options : -8 -V -T "ARTIST=%artist%" -T "TITLE=%title%" -T "ALBUM=%albumtitle%" -T "DATE=%year%" -T "TRACKNUMBER=%tracknr%" -T "TOTALTRACKS=%numtracks%" -T "GENRE=%genre%" -T "ALBUMARTIST=%albumartist%" -T "ALBUM ARTIST=%albumartist%" -T "COMMENT=EAC Secure Mode, Test & Copy, AccurateRip, FLAC -8" %source%
TOC of the extracted CD
Track | Start | Length | Start sector | End sector
---------------------------------------------------------
1 | 0:00.00 | 2:32.45 | 0 | 11444
2 | 2:32.45 | 2:47.60 | 11445 | 24029
3 | 5:20.30 | 3:39.12 | 24030 | 40466
4 | 8:59.42 | 8:32.51 | 40467 | 78917
5 | 17:32.18 | 2:24.26 | 78918 | 89743
6 | 19:56.44 | 8:27.47 | 89744 | 127815
7 | 28:24.16 | 8:07.34 | 127816 | 164374
8 | 36:31.50 | 5:48.41 | 164375 | 190515
9 | 42:20.16 | 6:45.30 | 190516 | 220920
Track 1
Filename C:\EAC rips\01 - N.O.D. [night observation device].wav
Pre-gap length 0:00:02.00
Peak level 61.1 %
Extraction speed 2.0 X
Track quality 100.0 %
Test CRC 7842522F
Copy CRC 7842522F
Accurately ripped (confidence 1) [F3C37DB8] (AR v1)
Copy OK
Track 2
Filename C:\EAC rips\02 - At Bart Bok's Place.wav
Peak level 99.9 %
Extraction speed 2.2 X
Track quality 100.0 %
Test CRC 23A55DE7
Copy CRC 23A55DE7
Accurately ripped (confidence 1) [F64B59C6] (AR v1)
Copy OK
Track 3
Filename C:\EAC rips\03 - Celestials.wav
Peak level 88.2 %
Extraction speed 2.4 X
Track quality 100.0 %
Test CRC 39156638
Copy CRC 39156638
Accurately ripped (confidence 1) [40A4DF54] (AR v1)
Copy OK
Track 4
Filename C:\EAC rips\04 - Crepuscule in the Land of Nod.wav
Pre-gap length 0:00:03.45
Peak level 100.0 %
Extraction speed 3.0 X
Track quality 100.0 %
Test CRC E14535D6
Copy CRC E14535D6
Accurately ripped (confidence 1) [9926F592] (AR v1)
Copy OK
Track 5
Filename C:\EAC rips\05 - Blisters Burn.wav
Pre-gap length 0:00:01.07
Peak level 99.9 %
Extraction speed 2.8 X
Track quality 100.0 %
Test CRC 8DBB1D81
Copy CRC 8DBB1D81
Accurately ripped (confidence 1) [0982028E] (AR v1)
Copy OK
Track 6
Filename C:\EAC rips\06 - Komplet Komplot (Perfect Conspiracy).wav
Peak level 99.7 %
Extraction speed 3.1 X
Track quality 99.9 %
Test CRC EA31410E
Copy CRC EA31410E
Accurately ripped (confidence 1) [B171D79B] (AR v1)
Copy OK
Track 7
Filename C:\EAC rips\07 - Fabular.wav
Pre-gap length 0:00:05.13
Peak level 99.9 %
Extraction speed 3.8 X
Track quality 100.0 %
Test CRC 742396FA
Copy CRC 742396FA
Accurately ripped (confidence 1) [EBD53F00] (AR v1)
Copy OK
Track 8
Filename C:\EAC rips\08 - Twisted Lip.wav
Pre-gap length 0:00:00.47
Peak level 99.9 %
Extraction speed 4.0 X
Track quality 100.0 %
Test CRC F1A18255
Copy CRC F1A18255
Accurately ripped (confidence 1) [B5434CF8] (AR v1)
Copy OK
Track 9
Filename C:\EAC rips\09 - Saint.wav
Pre-gap length 0:00:01.36
Peak level 86.1 %
Extraction speed 3.7 X
Track quality 99.9 %
Test CRC 95FC4BA9
Copy CRC 95FC4BA9
Accurately ripped (confidence 1) [2700A717] (AR v1)
Copy OK
All tracks accurately ripped
No errors occurred
End of status report
---- CUETools DB Plugin V2.1.4
[CTDB TOCID: 5EQ9qiY9JmaCEwdv44uKK6rIqEM-] disk not present in database
Submit result: 5EQ9qiY9JmaCEwdv44uKK6rIqEM- has been uploaded
==== Log checksum 5B1B50D1A97999632501625E294ACFCBCEAAA7CC8371CD7A8724FF8D2C2CC17E ====
 
Содержание индексной карты (.CUE)
REM GENRE Jazz
REM DATE 2009
REM DISCID 640B8109
REM COMMENT "ExactAudioCopy v1.0b3"
PERFORMER "Herb Robertson & Mark Solborg"
TITLE "[NOD•]"
FILE "01 - N.O.D. [night observation device].wav" WAVE
TRACK 01 AUDIO
TITLE "N.O.D. [night observation device]"
PERFORMER "Herb Robertson & Mark Solborg"
ISRC DKAD40900101
INDEX 01 00:00:00
FILE "02 - At Bart Bok's Place.wav" WAVE
TRACK 02 AUDIO
TITLE "At Bart Bok's Place"
PERFORMER "Herb Robertson & Mark Solborg"
ISRC DKAD40900102
INDEX 01 00:00:00
FILE "03 - Celestials.wav" WAVE
TRACK 03 AUDIO
TITLE "Celestials"
PERFORMER "Herb Robertson & Mark Solborg"
ISRC DKAD40900103
INDEX 01 00:00:00
TRACK 04 AUDIO
TITLE "Crepuscule in the Land of Nod"
PERFORMER "Herb Robertson & Mark Solborg"
ISRC DKAD40900104
INDEX 00 03:35:42
FILE "04 - Crepuscule in the Land of Nod.wav" WAVE
INDEX 01 00:00:00
TRACK 05 AUDIO
TITLE "Blisters Burn"
PERFORMER "Herb Robertson & Mark Solborg"
ISRC DKAD40900105
INDEX 00 08:31:44
FILE "05 - Blisters Burn.wav" WAVE
INDEX 01 00:00:00
FILE "06 - Komplet Komplot (Perfect Conspiracy).wav" WAVE
TRACK 06 AUDIO
TITLE "Komplet Komplot (Perfect Conspiracy)"
PERFORMER "Herb Robertson & Mark Solborg"
ISRC DKAD40900106
INDEX 01 00:00:00
TRACK 07 AUDIO
TITLE "Fabular"
PERFORMER "Herb Robertson & Mark Solborg"
ISRC DKAD40900107
INDEX 00 08:22:34
FILE "07 - Fabular.wav" WAVE
INDEX 01 00:00:00
TRACK 08 AUDIO
TITLE "Twisted Lip"
PERFORMER "Herb Robertson & Mark Solborg"
ISRC DKAD40900108
INDEX 00 08:06:62
FILE "08 - Twisted Lip.wav" WAVE
INDEX 01 00:00:00
TRACK 09 AUDIO
TITLE "Saint"
PERFORMER "Herb Robertson & Mark Solborg"
ISRC DKAD40900109
INDEX 00 05:47:05
FILE "09 - Saint.wav" WAVE
INDEX 01 00:00:00
По всем вопросам пишите личное сообщение пользователю M0p94ok.
05:36
167
Нет комментариев. Ваш будет первым!