Поиск

2014 Hang Em High – Beef & Bottle {Gig Ant} [CD]

2014 Hang Em High – Beef & Bottle {Gig Ant} [CD]
Стили:
Дата издания диска:
12 декабря 2014
Носитель:
CD
Тип рипа:
tracks+.cue
Аудиокодек:
FLAC (*.flac)
Битрейт аудио:
lossless
Наличие сканов:
только обложка

1. Circo Maximo (Bond) 5:51
2. Asa Ichi (Bond) 5:15
3. The Garden (Lucien Dubuis) 5:51
4. Edges (Bond) 5:02
5. Little Tuna (Bond) 6:28
6. Nice Song (Bond) 5:40
7. Beach Cowboys (Bond) 6:59
8. 11th Century Retrospective (Alfred Vogel) 6:29
9. The Low High (Lucien Dubuis) 5:37

Состав:
  • Bond – 2-String Slide Bass, Kay Bass, Electronics, Voice
  • Lucien Dubuis – Tenor Sax, Bass & Contrabass Clarinets, Voice
  • Alfred Vogel – Drums, Pots & Pans, Junk Percussion, Voice

Recorded June 13-14, 2014 at Toneschmiede Bezau, Austria.

Лог создания рипа
Exact Audio Copy V1.0 beta 3 from 29. August 2011
EAC extraction logfile from 22. September 2014, 14:07
Hang Em High - Bond, Lucien Dubuis, Alfred Vogel / Beef & Bottle
Used drive  : SlimtypeeNAU508   5   Adapter: 1  ID: 0
Read mode               : Secure
Utilize accurate stream : Yes
Defeat audio cache      : Yes
Make use of C2 pointers : No
Read offset correction                      : 6
Overread into Lead-In and Lead-Out          : No
Fill up missing offset samples with silence : Yes
Delete leading and trailing silent blocks   : No
Null samples used in CRC calculations       : Yes
Used interface                              : Native Win32 interface for Win NT & 2000
Gap handling                                : Appended to previous track
Used output format              : User Defined Encoder
Selected bitrate                : 768 kBit/s
Quality                         : High
Add ID3 tag                     : No
Command line compressor         : C:\Program Files (x86)\Exact Audio Copy\Flac\flac.exe
Additional command line options : -8 -V -T "ARTIST=%artist%" -T "TITLE=%title%" -T "ALBUM=%albumtitle%" -T "DATE=%year%" -T "TRACKNUMBER=%tracknr%" -T "TOTALTRACKS=%numtracks%" -T "GENRE=%genre%" -T "ALBUMARTIST=%albumartist%" -T "ALBUM ARTIST=%albumartist%" -T "COMMENT=EAC Secure Mode, Test & Copy, AccurateRip, FLAC -8" %source%
TOC of the extracted CD
     Track |   Start  |  Length  | Start sector | End sector
    ---------------------------------------------------------
        1  |  0:00.00 |  5:51.03 |         0    |    26327
        2  |  5:51.03 |  5:15.12 |     26328    |    49964
        3  | 11:06.15 |  5:51.30 |     49965    |    76319
        4  | 16:57.45 |  5:02.10 |     76320    |    98979
        5  | 21:59.55 |  6:27.61 |     98980    |   128065
        6  | 28:27.41 |  5:39.71 |    128066    |   153561
        7  | 34:07.37 |  6:59.06 |    153562    |   184992
        8  | 41:06.43 |  6:29.22 |    184993    |   214189
        9  | 47:35.65 |  5:36.62 |    214190    |   239451
Track  1
     Filename C:\EAC rips\01 - Circo Maximo.wav
     Pre-gap length  0:00:02.00
     Peak level 98.8 %
     Extraction speed 2.3 X
     Track quality 100.0 %
     Test CRC 0B36F9B2
     Copy CRC 0B36F9B2
     Track not present in AccurateRip database
     Copy OK
Track  2
     Filename C:\EAC rips\02 - Asa Ichi.wav
     Pre-gap length  0:00:03.00
     Peak level 98.8 %
     Extraction speed 2.6 X
     Track quality 100.0 %
     Test CRC A62A41BC
     Copy CRC A62A41BC
     Track not present in AccurateRip database
     Copy OK
Track  3
     Filename C:\EAC rips\03 - The Garden.wav
     Pre-gap length  0:00:03.00
     Peak level 98.8 %
     Extraction speed 2.9 X
     Track quality 100.0 %
     Test CRC 83D46F94
     Copy CRC 83D46F94
     Track not present in AccurateRip database
     Copy OK
Track  4
     Filename C:\EAC rips\04 - Edges.wav
     Pre-gap length  0:00:03.00
     Peak level 98.8 %
     Extraction speed 2.6 X
     Track quality 99.9 %
     Test CRC D94D57A6
     Copy CRC D94D57A6
     Track not present in AccurateRip database
     Copy OK
Track  5
     Filename C:\EAC rips\05 - Little Tuna.wav
     Pre-gap length  0:00:03.00
     Peak level 98.8 %
     Extraction speed 3.4 X
     Track quality 100.0 %
     Test CRC 79489DFF
     Copy CRC 79489DFF
     Track not present in AccurateRip database
     Copy OK
Track  6
     Filename C:\EAC rips\06 - Nice Song.wav
     Pre-gap length  0:00:03.00
     Peak level 98.8 %
     Extraction speed 3.1 X
     Track quality 99.9 %
     Test CRC 3A8AFE37
     Copy CRC 3A8AFE37
     Track not present in AccurateRip database
     Copy OK
Track  7
     Filename C:\EAC rips\07 - Beach Cowboys.wav
     Pre-gap length  0:00:03.00
     Peak level 98.8 %
     Extraction speed 3.9 X
     Track quality 100.0 %
     Test CRC 6FFCD2C5
     Copy CRC 6FFCD2C5
     Track not present in AccurateRip database
     Copy OK
Track  8
     Filename C:\EAC rips\08 - 11th Century Retrospective.wav
     Pre-gap length  0:00:03.00
     Peak level 98.8 %
     Extraction speed 4.1 X
     Track quality 100.0 %
     Test CRC B694080F
     Copy CRC B694080F
     Track not present in AccurateRip database
     Copy OK
Track  9
     Filename C:\EAC rips\09 - The Low High.wav
     Pre-gap length  0:00:03.00
     Peak level 98.8 %
     Extraction speed 4.3 X
     Track quality 100.0 %
     Test CRC 5A57A32A
     Copy CRC 5A57A32A
     Track not present in AccurateRip database
     Copy OK
None of the tracks are present in the AccurateRip database
No errors occurred
End of status report
---- CUETools DB Plugin V2.1.4
[CTDB TOCID: 9YRxWNfWCDmuzgTQJLKsZCeot2E-] disk not present in database
Submit result: 9YRxWNfWCDmuzgTQJLKsZCeot2E- has been uploaded
==== Log checksum 062BD42127DA56DED89EAE232290A1A962AE921B33E4CDA4958D310C4AFADFBC ====
05:37
299
Нет комментариев. Ваш будет первым!