Вы используете незарегистрированную версию компонента "Вкладки"!

Поиск

(Avant-Garde, Free Improvisation, Experimental, Edgetone) [CDR] Tri-Cornered Tent Show - Maze Above The Abyss (The Music Of Eric Zann) - 2001, FLAC (tracks+.cue), lossless

(Avant-Garde, Free Improvisation, Experimental, Edgetone) [CDR] Tri-Cornered Tent Show - Maze Above The Abyss (The Music Of Eric Zann) - 2001, FLAC (tracks+.cue), lossless
Треклист:
Tri-Cornered Tent Show / Maze Above The Abyss (The Music Of Eric Zann)
Жанр: Avant-Garde, Free Improvisation, Experimental, Edgetone
Носитель: CDR
Страна-производитель диска: US
Год издания: 2001
Издатель (лейбл): Edgetone Records
Номер по каталогу: EDT4005
Страна: US
Аудиокодек: FLAC (*.flac)
Тип рипа: tracks+.cue
Битрейт аудио: lossless
Продолжительность: 55:49
Источник (релизер): свой фирменный диск
Наличие сканов в содержимом раздачи:
Треклист:
1. Invocation Of Correlation
2. Confrontation Of Realization
3. Ritualization Of Tintintabulation
4. Declaration Of Abdication
5. Incantation Of Computation
6. Refraction Of Reduction
7. Reaction Of Deconstruction
8. Inflammation Of Formulation
9. Equalization Of Revivification
 
Лог создания рипа
Exact Audio Copy V1.0 beta 3 from 29. August 2011
EAC extraction logfile from 13. March 2014, 20:20
Tri-Cornered Tent Show / Maze Above The Abyss
Used drive : PIONEER DVD-RW DVR-115D Adapter: 0 ID: 0
Read mode : Secure
Utilize accurate stream : Yes
Defeat audio cache : Yes
Make use of C2 pointers : No
Read offset correction : 48
Overread into Lead-In and Lead-Out : No
Fill up missing offset samples with silence : Yes
Delete leading and trailing silent blocks : No
Null samples used in CRC calculations : Yes
Used interface : Installed external ASPI interface
Gap handling : Appended to previous track
Used output format : User Defined Encoder
Selected bitrate : 896 kBit/s
Quality : High
Add ID3 tag : No
Command line compressor : C:\Program Files\Exact Audio Copy\FLAC\FLAC.EXE
Additional command line options : -6 -V -T "ARTIST=%artist%" -T "TITLE=%title%" -T "ALBUM=%albumtitle%" -T "DATE=%year%" -T "TRACKNUMBER=%tracknr%" -T "GENRE=%genre%" -T "COMMENT=%comment%" -T "BAND=%albuminterpret%" -T "COMPOSER=%composer%" %haslyrics%--tag-from-file=LYRICS="%lyricsfile%"%haslyrics% -T "DISCNUMBER=%cdnumber%" -T "TOTALDISCS=%totalcds%" -T "TOTALTRACKS=%numtracks%" %hascover%--picture="%coverfile%"%hascover% %source% -o %dest%
TOC of the extracted CD
Track | Start | Length | Start sector | End sector
---------------------------------------------------------
1 | 0:00.00 | 12:33.05 | 0 | 56479
2 | 12:33.05 | 2:56.63 | 56480 | 69742
3 | 15:29.68 | 5:42.13 | 69743 | 95405
4 | 21:12.06 | 3:50.25 | 95406 | 112680
5 | 25:02.31 | 2:37.12 | 112681 | 124467
6 | 27:39.43 | 5:33.47 | 124468 | 149489
7 | 33:13.15 | 13:17.21 | 149490 | 209285
8 | 46:30.36 | 6:21.69 | 209286 | 237929
9 | 52:52.30 | 2:56.64 | 237930 | 251193
Track 1
Filename D:\zzz\01 - Invocation Of Correlation.wav
Pre-gap length 0:00:02.00
Peak level 100.0 %
Extraction speed 5.4 X
Track quality 100.0 %
Test CRC 12A2B0DF
Copy CRC 12A2B0DF
Track not present in AccurateRip database
Copy OK
Track 2
Filename D:\zzz\02 - Confrontation Of Realization.wav
Peak level 92.0 %
Extraction speed 5.3 X
Track quality 100.0 %
Test CRC 0F09806F
Copy CRC 0F09806F
Track not present in AccurateRip database
Copy OK
Track 3
Filename D:\zzz\03 - Ritualization Of Tintintabulation.wav
Peak level 99.1 %
Extraction speed 6.2 X
Track quality 100.0 %
Test CRC F21215B0
Copy CRC F21215B0
Track not present in AccurateRip database
Copy OK
Track 4
Filename D:\zzz\04 - Declaration Of Abdication.wav
Peak level 96.0 %
Extraction speed 6.2 X
Track quality 100.0 %
Test CRC E0ECD2A3
Copy CRC E0ECD2A3
Track not present in AccurateRip database
Copy OK
Track 5
Filename D:\zzz\05 - Incantation Of Computation.wav
Peak level 100.0 %
Extraction speed 6.0 X
Track quality 100.0 %
Test CRC 1BC74AF0
Copy CRC 1BC74AF0
Track not present in AccurateRip database
Copy OK
Track 6
Filename D:\zzz\06 - Refraction Of Reduction.wav
Peak level 85.0 %
Extraction speed 6.3 X
Track quality 99.9 %
Test CRC C5C8C27A
Copy CRC C5C8C27A
Track not present in AccurateRip database
Copy OK
Track 7
Filename D:\zzz\07 - Reaction Of Deconstruction.wav
Peak level 100.0 %
Extraction speed 7.9 X
Track quality 100.0 %
Test CRC 250B5A02
Copy CRC 250B5A02
Track not present in AccurateRip database
Copy OK
Track 8
Filename D:\zzz\08 - Inflammation Of Formulation.wav
Peak level 100.0 %
Extraction speed 8.0 X
Track quality 100.0 %
Test CRC 7C251830
Copy CRC 7C251830
Track not present in AccurateRip database
Copy OK
Track 9
Filename D:\zzz\09 - Equalization Of Revivification.wav
Peak level 100.0 %
Extraction speed 7.4 X
Track quality 100.0 %
Test CRC 3A1A8824
Copy CRC 3A1A8824
Track not present in AccurateRip database
Copy OK
None of the tracks are present in the AccurateRip database
No errors occurred
End of status report
==== Log checksum E0832DBEDA6780B02C949E37CFAB981E29BC49D6E122B87232A16B4BA6958CFB ====
 
Содержание индексной карты (.CUE)
REM GENRE "Weird Shit"
REM DATE 2001
REM DISCID 810D1509
REM COMMENT "ExactAudioCopy v1.0b3"
PERFORMER "Tri-Cornered Tent Show"
TITLE "Maze Above The Abyss"
FILE "01 - Invocation Of Correlation.wav" WAVE
TRACK 01 AUDIO
TITLE "Invocation Of Correlation"
PERFORMER "Tri-Cornered Tent Show"
FLAGS DCP
INDEX 01 00:00:00
FILE "02 - Confrontation Of Realization.wav" WAVE
TRACK 02 AUDIO
TITLE "Confrontation Of Realization"
PERFORMER "Tri-Cornered Tent Show"
FLAGS DCP
INDEX 01 00:00:00
FILE "03 - Ritualization Of Tintintabulation.wav" WAVE
TRACK 03 AUDIO
TITLE "Ritualization Of Tintintabulation"
PERFORMER "Tri-Cornered Tent Show"
FLAGS DCP
INDEX 01 00:00:00
FILE "04 - Declaration Of Abdication.wav" WAVE
TRACK 04 AUDIO
TITLE "Declaration Of Abdication"
PERFORMER "Tri-Cornered Tent Show"
FLAGS DCP
INDEX 01 00:00:00
FILE "05 - Incantation Of Computation.wav" WAVE
TRACK 05 AUDIO
TITLE "Incantation Of Computation"
PERFORMER "Tri-Cornered Tent Show"
FLAGS DCP
INDEX 01 00:00:00
FILE "06 - Refraction Of Reduction.wav" WAVE
TRACK 06 AUDIO
TITLE "Refraction Of Reduction"
PERFORMER "Tri-Cornered Tent Show"
FLAGS DCP
INDEX 01 00:00:00
FILE "07 - Reaction Of Deconstruction.wav" WAVE
TRACK 07 AUDIO
TITLE "Reaction Of Deconstruction"
PERFORMER "Tri-Cornered Tent Show"
FLAGS DCP
INDEX 01 00:00:00
FILE "08 - Inflammation Of Formulation.wav" WAVE
TRACK 08 AUDIO
TITLE "Inflammation Of Formulation"
PERFORMER "Tri-Cornered Tent Show"
FLAGS DCP
INDEX 01 00:00:00
FILE "09 - Equalization Of Revivification.wav" WAVE
TRACK 09 AUDIO
TITLE "Equalization Of Revivification"
PERFORMER "Tri-Cornered Tent Show"
FLAGS DCP
INDEX 01 00:00:00
 
Лог проверки качества
d:\>d:\aucdtect -d/-m0 d:\zzz\*.wav
auCDtect: CD records authenticity detector, version 0.8.2
Copyright (c) 2004 Oleg Berngardt. All rights reserved.
Copyright (c) 2004 Alexander Djourik. All rights reserved.
------------------------------------------------------------
Processing file: [01. Invocation Of Correlation.wav]
------------------------------------------------------------
This track looks like CDDA with probability 100%
------------------------------------------------------------
Processing file: [02. Confrontation Of Realization.wav]
------------------------------------------------------------
This track looks like CDDA with probability 100%
------------------------------------------------------------
Processing file: [03. Ritualization Of Tintintabulation.wav]
------------------------------------------------------------
This track looks like CDDA with probability 100%
------------------------------------------------------------
Processing file: [04. Declaration Of Abdication.wav]
------------------------------------------------------------
This track looks like CDDA with probability 100%
------------------------------------------------------------
Processing file: [05. Incantation Of Computation.wav]
------------------------------------------------------------
This track looks like CDDA with probability 100%
------------------------------------------------------------
Processing file: [06. Refraction Of Reduction.wav]
------------------------------------------------------------
This track looks like CDDA with probability 100%
------------------------------------------------------------
Processing file: [07. Reaction Of Deconstruction.wav]
------------------------------------------------------------
This track looks like CDDA with probability 100%
------------------------------------------------------------
Processing file: [08. Inflammation Of Formulation.wav]
------------------------------------------------------------
This track looks like CDDA with probability 99%
------------------------------------------------------------
Processing file: [09. Equalization Of Revivification.wav]
------------------------------------------------------------
This track looks like CDDA with probability 99%
------------------------------------------------------------
Final Conclusion:
------------------------------------------------------------
These tracks looks like CDDA with probability 100%
Доп. информация:
 
Album & Artist Info
Produced by Mike Everett
1-3,7: basic tracks recorded by Steven Toby at Thunderpurr Studio in Oakland Ca. 1976
9.: basic tracks recorded by Steven Toby at Nazmir Kelpkut Recording Co. 1979
All other tracks, overdubs, mixdown and mastering by Ray Schaeffer at Nazmir Kelpkut Recording Co. between 1984 and 1999
New interpretations of ancient antedeluvian scores as performed by Tri Cornered Tent Show, inspired by H.P. Lovecraft
In the early 20th century "tent shows" created multiple stages of interest vying simultaneously for attention.
They could be selling you medicine, salvation, entertainment or war.
While Drawing on combined influences in R&B/dance, classical, multi cultural folk, progressive rock, 20th century avant garde, free jazz and heavy metal, Tri-Cornered Tent Show pushes the envelope of melodic groove and arrhythmic improvisation, sometimes evoking images of 70's Italian horror pictures. and other outr`e forms of cinema.
Around the turn of the 21st century the Tri-Cornered Tent Show driven by two intrepid tavelers Philip Everett and Ray Schaeffer, came out from their exile held up in a well-insulated dank studio in the depths of Richmond California for almost three decades.
The musical journey began with initial tracks of their first three releases being recorded using the ancient anti-deluvian technology of electronics from the 70’s. Though methodical deciphering of the Lovcraft short story “The music of Eric Zann”, other related stories expanded upon Lovecraft’s Greater Cthulu Mythos they began recording free improvisation and orchestrated sound sculpture over those many years to create the first three projects now available on Edgetone Records. In 2003 their fourth creation Legion of Dagon features added guest members saxophonist Rent Romus and guest mulit-instrumentalist Jeff Hobbs based on the 28 sonnet by Lovecraft, The Fungi of Yuggoth. In 2005 they released The Foolkiller, an operatic improviational song cycle based loosely on Philip Everett's prose inspired by southern murder ballads and political commentary and satire featuring the voice work of Dina Emerson. Currently they work with noiseician CJ Borosque, and saxophonist and snake oil salesman Rent Romus.
 
Состав
Phillip Everett: trap set and percussion
David Toby: Honer clavinet, melodica, Hammond organ, Chamberlin and misc. percussion
Ray Schaeffer: basses, turkish zaz, midi guitar, SFX
По всем вопросам пишите личное сообщение пользователю M0p94ok.
00:45
212
Нет комментариев. Ваш будет первым!