Вы используете незарегистрированную версию компонента "Вкладки"!

Поиск

(Avant-Garde, Experimental, Free Improvisation, Edgetone) [CDR] Tri-Cornered Tent Show - Improvisation On The Mythos Of Eric Zann - 2001, FLAC (tracks+.cue), lossless

(Avant-Garde, Experimental, Free Improvisation, Edgetone) [CDR] Tri-Cornered Tent Show - Improvisation On The Mythos Of Eric Zann - 2001, FLAC (tracks+.cue), lossless
Треклист:
Tri-Cornered Tent Show / Improvisation On The Mythos Of Eric Zann
Жанр: Avant-Garde, Experimental, Free Improvisation, Edgetone
Носитель: CDR
Страна-производитель диска: US
Год издания: 2001
Издатель (лейбл): Edgetone Records
Номер по каталогу: EDT4006
Страна: US
Аудиокодек: FLAC (*.flac)
Тип рипа: tracks+.cue
Битрейт аудио: lossless
Продолжительность: 46:33
Источник (релизер): свой фирменный диск
Наличие сканов в содержимом раздачи:
Треклист:
1. Crepescule In Hyperborea
2. The Black Reefs Of Yha-Nthlei
3. Dagon Rising
4. The Lair Of Nyarlathotep
5. Cthulhu In R'Lyeh
6. The Delerium Of Yog-Sothoth
7. Yellow Oil Toast
 
Лог создания рипа
Exact Audio Copy V1.0 beta 3 from 29. August 2011
EAC extraction logfile from 13. March 2014, 22:57
Tri-Cornered Tent Show / Improvisation On The Mythos Of Eric Zann
Used drive : PIONEER DVD-RW DVR-115D Adapter: 0 ID: 0
Read mode : Secure
Utilize accurate stream : Yes
Defeat audio cache : Yes
Make use of C2 pointers : No
Read offset correction : 48
Overread into Lead-In and Lead-Out : No
Fill up missing offset samples with silence : Yes
Delete leading and trailing silent blocks : No
Null samples used in CRC calculations : Yes
Used interface : Installed external ASPI interface
Gap handling : Appended to previous track
Used output format : User Defined Encoder
Selected bitrate : 896 kBit/s
Quality : High
Add ID3 tag : No
Command line compressor : C:\Program Files\Exact Audio Copy\FLAC\FLAC.EXE
Additional command line options : -6 -V -T "ARTIST=%artist%" -T "TITLE=%title%" -T "ALBUM=%albumtitle%" -T "DATE=%year%" -T "TRACKNUMBER=%tracknr%" -T "GENRE=%genre%" -T "COMMENT=%comment%" -T "BAND=%albuminterpret%" -T "COMPOSER=%composer%" %haslyrics%--tag-from-file=LYRICS="%lyricsfile%"%haslyrics% -T "DISCNUMBER=%cdnumber%" -T "TOTALDISCS=%totalcds%" -T "TOTALTRACKS=%numtracks%" %hascover%--picture="%coverfile%"%hascover% %source% -o %dest%
TOC of the extracted CD
Track | Start | Length | Start sector | End sector
---------------------------------------------------------
1 | 0:00.00 | 2:13.00 | 0 | 9974
2 | 2:13.00 | 10:49.03 | 9975 | 58652
3 | 13:02.03 | 3:22.36 | 58653 | 73838
4 | 16:24.39 | 3:13.42 | 73839 | 88355
5 | 19:38.06 | 16:21.69 | 88356 | 161999
6 | 36:00.00 | 2:20.05 | 162000 | 172504
7 | 38:20.05 | 8:13.02 | 172505 | 209481
Track 1
Filename D:\zzz\01 - Crepescule In Hyperborea.wav
Pre-gap length 0:00:02.00
Peak level 99.0 %
Extraction speed 4.1 X
Track quality 100.0 %
Test CRC 42ACD9C2
Copy CRC 42ACD9C2
Track not present in AccurateRip database
Copy OK
Track 2
Filename D:\zzz\02 - The Black Reefs Of Yha-Nthlei.wav
Peak level 99.9 %
Extraction speed 5.3 X
Track quality 99.9 %
Test CRC CB226215
Copy CRC CB226215
Track not present in AccurateRip database
Copy OK
Track 3
Filename D:\zzz\03 - Dagon Rising.wav
Peak level 98.9 %
Extraction speed 4.8 X
Track quality 99.9 %
Test CRC 790E8D0A
Copy CRC 790E8D0A
Track not present in AccurateRip database
Copy OK
Track 4
Filename D:\zzz\04 - The Lair Of Nyarlathotep.wav
Peak level 98.9 %
Extraction speed 5.0 X
Track quality 99.9 %
Test CRC C8228BEF
Copy CRC C8228BEF
Track not present in AccurateRip database
Copy OK
Track 5
Filename D:\zzz\05 - Cthulhu In R'Lyeh.wav
Peak level 100.0 %
Extraction speed 7.3 X
Track quality 100.0 %
Test CRC C45799F6
Copy CRC C45799F6
Track not present in AccurateRip database
Copy OK
Track 6
Filename D:\zzz\06 - The Delerium Of Yog-Sothoth.wav
Peak level 100.0 %
Extraction speed 5.3 X
Track quality 99.9 %
Test CRC 1C7B3EE7
Copy CRC 1C7B3EE7
Track not present in AccurateRip database
Copy OK
Track 7
Filename D:\zzz\07 - Yellow Oil Toast.wav
Peak level 100.0 %
Extraction speed 7.3 X
Track quality 99.9 %
Test CRC 04F4AFCF
Copy CRC 04F4AFCF
Track not present in AccurateRip database
Copy OK
None of the tracks are present in the AccurateRip database
No errors occurred
End of status report
==== Log checksum 273C4C13BFF64D1F687E2E0F2E569FB53AB735D43F075B71CFD2419E27C5D671 ====
 
Содержание индексной карты (.CUE)
REM GENRE "Free Improvisation"
REM DATE 2001
REM DISCID 510AE907
REM COMMENT "ExactAudioCopy v1.0b3"
PERFORMER "Tri-Cornered Tent Show"
TITLE "Improvisation On The Mythos Of Eric Zann"
FILE "01 - Crepescule In Hyperborea.wav" WAVE
TRACK 01 AUDIO
TITLE "Crepescule In Hyperborea"
PERFORMER "Tri-Cornered Tent Show"
FLAGS DCP
INDEX 01 00:00:00
FILE "02 - The Black Reefs Of Yha-Nthlei.wav" WAVE
TRACK 02 AUDIO
TITLE "The Black Reefs Of Yha-Nthlei"
PERFORMER "Tri-Cornered Tent Show"
FLAGS DCP
INDEX 01 00:00:00
FILE "03 - Dagon Rising.wav" WAVE
TRACK 03 AUDIO
TITLE "Dagon Rising"
PERFORMER "Tri-Cornered Tent Show"
FLAGS DCP
INDEX 01 00:00:00
FILE "04 - The Lair Of Nyarlathotep.wav" WAVE
TRACK 04 AUDIO
TITLE "The Lair Of Nyarlathotep"
PERFORMER "Tri-Cornered Tent Show"
FLAGS DCP
INDEX 01 00:00:00
FILE "05 - Cthulhu In R'Lyeh.wav" WAVE
TRACK 05 AUDIO
TITLE "Cthulhu In R'Lyeh"
PERFORMER "Tri-Cornered Tent Show"
FLAGS DCP
INDEX 01 00:00:00
FILE "06 - The Delerium Of Yog-Sothoth.wav" WAVE
TRACK 06 AUDIO
TITLE "The Delerium Of Yog-Sothoth"
PERFORMER "Tri-Cornered Tent Show"
FLAGS DCP
INDEX 01 00:00:00
FILE "07 - Yellow Oil Toast.wav" WAVE
TRACK 07 AUDIO
TITLE "Yellow Oil Toast"
PERFORMER "Tri-Cornered Tent Show"
FLAGS DCP
INDEX 01 00:00:00
 
Лог проверки качества
d:\>d:\aucdtect -d/-m0 d:\zzz\*.wav
auCDtect: CD records authenticity detector, version 0.8.2
Copyright (c) 2004 Oleg Berngardt. All rights reserved.
Copyright (c) 2004 Alexander Djourik. All rights reserved.
------------------------------------------------------------
Processing file: [01. Crepescule In Hyperborea.wav]
------------------------------------------------------------
This track looks like CDDA with probability 100%
------------------------------------------------------------
Processing file: [02. The Black Reefs Of Yha-Nthlei.wav]
------------------------------------------------------------
This track looks like CDDA with probability 100%
------------------------------------------------------------
Processing file: [03. Dagon Rising.wav]
------------------------------------------------------------
This track looks like CDDA with probability 100%
------------------------------------------------------------
Processing file: [04. The Lair Of Nyarlathotep.wav]
------------------------------------------------------------
This track looks like CDDA with probability 100%
------------------------------------------------------------
Processing file: [05. Cthulhu In R'Lyeh.wav]
------------------------------------------------------------
This track looks like CDDA with probability 99%
------------------------------------------------------------
Processing file: [06. The Delerium Of Yog-Sothoth.wav]
------------------------------------------------------------
This track looks like CDDA with probability 100%
------------------------------------------------------------
Processing file: [07. Yellow Oil Toast.wav]
------------------------------------------------------------
This track looks like CDDA with probability 100%
------------------------------------------------------------
Final Conclusion:
------------------------------------------------------------
These tracks looks like CDDA with probability 100%
Доп. информация:
 
Album Info
This is part two of the CD trilogy dedicated to the short story by H.P. Lovecraft "The Lost Music of Eric Zann". "In any musical performance situation it is best to be pleasant and convivial. But as in all manner of business the work has to demand your utmost attention.
In Eric Zann’s case there wasn’t a lot of time to be cordial as his music was literally designed to hold back the forces of complete chaos. This real or imagined cosmic responsibility has been debated openly and in most cases disputed and ridiculed excessively." -Tri-Cornered Tent Show
 
Состав
Philip Everett: drums and percussion
Ray Schaeffer: electric basses
John Glick: keyboards
По всем вопросам пишите личное сообщение пользователю M0p94ok.
00:45
181
Нет комментариев. Ваш будет первым!