Вы используете незарегистрированную версию компонента "Вкладки"!

Поиск

(Avant-Garde, Free Improvisation) [CD] Cadavre exquis (Urs Bloechlinger, Christoph Baumann, Tom Varner, Dave Taylor, Martin Schlumpf a. o.) - Music by Two Composers for Ten Improvisers from Two Continents - 1988, FLAC (tracks+.cue), lossless

(Avant-Garde, Free Improvisation) [CD] Cadavre exquis (Urs Bloechlinger, Christoph Baumann, Tom Varner, Dave Taylor, Martin Schlumpf a. o.) - Music by Two Composers for Ten Improvisers from Two Continents - 1988, FLAC (tracks+.cue), lossless
Треклист:
Cadavre exquis / Music by Two Composers for Ten Improvisers from Two Continents
Жанр: Avant-Garde, Free Improvisation
Носитель: CD
Страна-производитель диска: Switzerland
Год издания: 1988
Издатель (лейбл): Creative Works Records
Номер по каталогу: CW 1014-1
Аудиокодек: FLAC (*.flac)
Тип рипа: tracks+.cue
Битрейт аудио: lossless
Продолжительность: 1:02:07
Источник (релизер): я
Наличие сканов в содержимом раздачи: да
Треклист:
1. A March Is an Introduction 10:58
2. Kinderlieder nach A. Wölfli 3:00
3. Wucherung II (Christoph Baumann) 13:01
4. La Belle et la Bête 4:56
5. Kännsch Höngg ? 15:49
6. Ballade (Christoph Baumann) 6:10
7. The Soundville Syndrom - Part 1, 2, 3 (Christoph Baumann, Urs Blöchlinger) 8:13
All compositions by Urs Blöchlinger except where indicated.
Urs Blöchlinger – Alto, Soprano and Bass Saxophones
Nat Su – Alto Saxophone
Martin Schlumpf – Soprano Saxophone, Bass Clarinet
Ian Gordon-Lennox – Trumpet, Flugelhorn
Tom Varner – French Horn
Roland Dahinden – Trombone
Dave Taylor – Bass Trombone
Christoph Baumann – Piano
Hämi Hämmerli – Bass
Dieter Ulrich – Drums
 
Лог создания рипа
Exact Audio Copy V1.0 beta 3 from 29. August 2011
EAC extraction logfile from 29. December 2013, 14:23
Cadavre exquis / Music by Two Composers for Ten Improvisers from Two Continents
Used drive : SlimtypeeNAU508 5 Adapter: 1 ID: 0
Read mode : Secure
Utilize accurate stream : Yes
Defeat audio cache : Yes
Make use of C2 pointers : No
Read offset correction : 6
Overread into Lead-In and Lead-Out : No
Fill up missing offset samples with silence : Yes
Delete leading and trailing silent blocks : No
Null samples used in CRC calculations : Yes
Used interface : Native Win32 interface for Win NT & 2000
Gap handling : Appended to previous track
Used output format : User Defined Encoder
Selected bitrate : 768 kBit/s
Quality : High
Add ID3 tag : No
Command line compressor : C:\Program Files (x86)\Exact Audio Copy\Flac\flac.exe
Additional command line options : -8 -V -T "ARTIST=%artist%" -T "TITLE=%title%" -T "ALBUM=%albumtitle%" -T "DATE=%year%" -T "TRACKNUMBER=%tracknr%" -T "GENRE=%genre%" -T "PERFORMER=%albuminterpret%" -T "COMPOSER=%composer%" %haslyrics%--tag-from-file=LYRICS="%lyricsfile%"%haslyrics% -T "ALBUMARTIST=%albumartist%" -T "DISCNUMBER=%cdnumber%" -T "TOTALDISCS=%totalcds%" -T "TOTALTRACKS=%numtracks%" -T "COMMENT=%comment%" %source% -o %dest%
TOC of the extracted CD
Track | Start | Length | Start sector | End sector
---------------------------------------------------------
1 | 0:00.65 | 10:57.52 | 65 | 49391
2 | 10:58.42 | 3:00.03 | 49392 | 62894
3 | 13:58.45 | 13:01.25 | 62895 | 121494
4 | 26:59.70 | 4:56.07 | 121495 | 143701
5 | 31:56.02 | 15:48.48 | 143702 | 214849
6 | 47:44.50 | 6:10.10 | 214850 | 242609
7 | 53:54.60 | 8:13.27 | 242610 | 279611
Track 1
Filename C:\EAC rips\01 - A March Is an Introduction.wav
Pre-gap length 0:00:02.65
Peak level 83.9 %
Extraction speed 1.2 X
Track quality 99.9 %
Test CRC A5DA8962
Copy CRC A5DA8962
Track not present in AccurateRip database
Copy OK
Track 2
Filename C:\EAC rips\02 - Kinderlieder nach A. Wölfli.wav
Pre-gap length 0:00:02.57
Peak level 57.3 %
Extraction speed 1.3 X
Track quality 100.0 %
Test CRC 4135AAA8
Copy CRC 4135AAA8
Track not present in AccurateRip database
Copy OK
Track 3
Filename C:\EAC rips\03 - Wucherung II.wav
Pre-gap length 0:00:01.58
Peak level 95.8 %
Extraction speed 1.7 X
Track quality 100.0 %
Test CRC 512C2FE2
Copy CRC 512C2FE2
Track not present in AccurateRip database
Copy OK
Track 4
Filename C:\EAC rips\04 - La Belle et la Bête.wav
Pre-gap length 0:00:01.35
Peak level 62.1 %
Extraction speed 1.7 X
Track quality 100.0 %
Test CRC 2623D49C
Copy CRC 2623D49C
Track not present in AccurateRip database
Copy OK
Track 5
Filename C:\EAC rips\05 - Kännsch Höngg _.wav
Pre-gap length 0:00:02.12
Peak level 100.0 %
Extraction speed 2.1 X
Track quality 100.0 %
Test CRC C1C45482
Copy CRC C1C45482
Track not present in AccurateRip database
Copy OK
Track 6
Filename C:\EAC rips\06 - Ballade.wav
Pre-gap length 0:00:02.18
Peak level 63.4 %
Extraction speed 2.2 X
Track quality 100.0 %
Test CRC 010760B2
Copy CRC 010760B2
Track not present in AccurateRip database
Copy OK
Track 7
Filename C:\EAC rips\07 - The Soundville Syndrom - Part 1, 2, 3.wav
Pre-gap length 0:00:04.08
Peak level 68.5 %
Extraction speed 2.1 X
Track quality 99.9 %
Test CRC E047CC25
Copy CRC E047CC25
Track not present in AccurateRip database
Copy OK
None of the tracks are present in the AccurateRip database
No errors occurred
End of status report
---- CUETools DB Plugin V2.1.4
[CTDB TOCID: IISq61tfyI0AZWOVaQZLQ2jlfWo-] found
Submit result: already submitted
Track | CTDB Status
1 | (1/1) Accurately ripped
2 | (1/1) Accurately ripped
3 | (1/1) Accurately ripped
4 | (1/1) Accurately ripped
5 | (1/1) Accurately ripped
6 | (1/1) Accurately ripped
7 | (1/1) Accurately ripped
==== Log checksum 22B83EAC27A56036E8F378643B969F4B3F16261A90DBE95B33C72232205BBB27 ====
 
Содержание индексной карты (.CUE)
REM GENRE Jazz
REM DATE 1988
REM DISCID 5B0E9007
REM COMMENT "ExactAudioCopy v1.0b3"
PERFORMER "Cadavre exquis"
TITLE "Music by Two Composers for Ten Improvisers from Two Continents"
FILE "01 - A March Is an Introduction.wav" WAVE
TRACK 01 AUDIO
TITLE "A March Is an Introduction"
PERFORMER "Cadavre exquis"
PREGAP 00:00:65
INDEX 01 00:00:00
TRACK 02 AUDIO
TITLE "Kinderlieder nach A. Wölfli"
PERFORMER "Cadavre exquis"
INDEX 00 10:54:70
FILE "02 - Kinderlieder nach A. Wölfli.wav" WAVE
INDEX 01 00:00:00
TRACK 03 AUDIO
TITLE "Wucherung II"
PERFORMER "Cadavre exquis"
INDEX 00 02:58:20
FILE "03 - Wucherung II.wav" WAVE
INDEX 01 00:00:00
TRACK 04 AUDIO
TITLE "La Belle et la Bête"
PERFORMER "Cadavre exquis"
INDEX 00 12:59:65
FILE "04 - La Belle et la Bête.wav" WAVE
INDEX 01 00:00:00
TRACK 05 AUDIO
TITLE "Kännsch Höngg ?"
PERFORMER "Cadavre exquis"
INDEX 00 04:53:70
FILE "05 - Kännsch Höngg _.wav" WAVE
INDEX 01 00:00:00
TRACK 06 AUDIO
TITLE "Ballade"
PERFORMER "Cadavre exquis"
INDEX 00 15:46:30
FILE "06 - Ballade.wav" WAVE
INDEX 01 00:00:00
TRACK 07 AUDIO
TITLE "The Soundville Syndrom - Part 1, 2, 3"
PERFORMER "Cadavre exquis"
INDEX 00 06:06:02
FILE "07 - The Soundville Syndrom - Part 1, 2, 3.wav" WAVE
INDEX 01 00:00:00
INDEX 02 02:14:65
INDEX 03 05:09:47
Any questions -> support@pro-jazz.com. По всем вопросам пишите -> support@pro-jazz.com
00:18
153
Нет комментариев. Ваш будет первым!