Вы используете незарегистрированную версию компонента "Вкладки"!

Поиск

(avant-garde) Frank Wright - Center of the World Vol. 1 & 2, Last Polka in Nancy? 1972-73, FLAC (tracks), lossless

(avant-garde) Frank Wright - Center of the World Vol. 1 & 2, Last Polka in Nancy? 1972-73, FLAC (tracks), lossless
Треклист:


Frank Wright - Center of the World Vol. 1 & 2

Жанр:avant-garde
Год выпуска: 1972-73
Издатель (лейбл): Fractal Records
Формат: FLAC (tracks)
Источник: не помню
Bass, Cello, Voice – Alan Silva
Drums, Voice – Muhammad Ali
Piano, Voice – Bobby Few
Tenor Saxophone, Soprano Saxophone, Voice – Frank Wright
 
Vol. 1, 1972 1`10`19



Vol. 1, 1972

1 Center Of The World, Part 1 19:51
2 Center Of The World, Part 2 19:45
3 No End 17:33
4 Church Number 9 13:11
1`10`19

 
.log
Exact Audio Copy V0.99 prebeta 4 from 23. January 2008
EAC extraction logfile from 5. February 2008, 11:58
frank wright / center of the world
Used drive : _NEC DVD+-RW ND-6650A Adapter: 0 ID: 0
Read mode : Secure
Utilize accurate stream : Yes
Defeat audio cache : Yes
Make use of C2 pointers : No
Read offset correction : 48
Overread into Lead-In and Lead-Out : No
Fill up missing offset samples with silence : Yes
Delete leading and trailing silent blocks : No
Null samples used in CRC calculations : Yes
Used interface : Installed external ASPI interface
Gap handling : Not detected, thus appended to previous track
Used output format : User Defined Encoder
Selected bitrate : 192 kBit/s
Quality : High
Add ID3 tag : No
Command line compressor : C:\Program Files\Exact Audio Copy\Flac\flac.exe
Additional command line options : -V -5 -T "artist=%a" -T "title=%t" -T "album=%g" -T "date=%y" -T "tracknumber=%n" -T "genre=%m" %s
TOC of the extracted CD
Track | Start | Length | Start sector | End sector
---------------------------------------------------------
1 | 0:00.00 | 19:50.65 | 0 | 89314
2 | 19:50.65 | 19:44.73 | 89315 | 178187
3 | 39:35.63 | 17:32.64 | 178188 | 257151
4 | 57:08.52 | 13:10.45 | 257152 | 316446
Track 1
Filename C:\Documents and Settings\mikah\My Documents\My Music\iTunes\iTunes Music\Frank Wright\center of the world, part 1.wav
Peak level 98.8 %
Track quality 100.0 %
Test CRC 7B27F01F
Copy CRC 7B27F01F
Track not present in AccurateRip database
Copy OK
Track 2
Filename C:\Documents and Settings\mikah\My Documents\My Music\iTunes\iTunes Music\Frank Wright\center of the world, part 2.wav
Peak level 93.3 %
Track quality 100.0 %
Test CRC 99EDC78A
Copy CRC 99EDC78A
Track not present in AccurateRip database
Copy OK
Track 3
Filename C:\Documents and Settings\mikah\My Documents\My Music\iTunes\iTunes Music\Frank Wright\no end.wav
Peak level 57.7 %
Track quality 100.0 %
Test CRC 1CB715A8
Copy CRC 1CB715A8
Track not present in AccurateRip database
Copy OK
Track 4
Filename C:\Documents and Settings\mikah\My Documents\My Music\iTunes\iTunes Music\Frank Wright\church number 9.wav
Peak level 47.6 %
Track quality 100.0 %
Test CRC 3FEDB37D
Copy CRC 3FEDB37D
Track not present in AccurateRip database
Copy OK
None of the tracks are present in the AccurateRip database
No errors occurred
End of status report
 
.cue
REM ACCURATERIPID 000cd58e-0032b886-2c107b04
REM COMMENT "CUETools generated dummy CUE sheet"
PERFORMER "Frank Wright"
TITLE "Center of the World, Vol. 1"
REM DATE 1972
REM GENRE "Avant - jazz"
FILE "01 Center of the World, Part 1.flac" WAVE
TRACK 01 AUDIO
PERFORMER "Frank Wright"
TITLE "Center of the World, Part 1"
INDEX 01 00:00:00
FILE "02 Center of the World, Part 2.flac" WAVE
TRACK 02 AUDIO
PERFORMER "Frank Wright"
TITLE "Center of the World, Part 2"
INDEX 01 00:00:00
FILE "03 No End.flac" WAVE
TRACK 03 AUDIO
PERFORMER "Frank Wright"
TITLE "No End"
INDEX 01 00:00:00
FILE "04 Church Number 9.flac" WAVE
TRACK 04 AUDIO
PERFORMER "Frank Wright"
TITLE "Church Number 9"
INDEX 01 00:00:00
 
.accurip
[CUETools log; Date: 29/06/12 00:46:13; Version: 2.1.2a]
[CTDB TOCID: _eAy_p5GkXhs10lSGiPtsbtPaV8-] disk not present in database.
[AccurateRip ID: 000cd58e-0032b886-2c107b04] found.
Track [ CRC ] Status
01 [eb101a79] (1/1) Accurately ripped
02 [ce9ea757] (1/1) Accurately ripped
03 [4e7c73c4] (1/1) Accurately ripped
04 [87ecb2ac] (1/1) Accurately ripped
Track Peak [ CRC32 ] [W/O NULL] [ LOG ]
-- 98.8 [4B8D69DA] [737508D0]
01 98.8 [7B27F01F] [CB6742AD] CRC32
02 93.3 [99EDC78A] [7F38FBB9] CRC32
03 57.7 [1CB715A8] [520D5661] CRC32
04 47.6 [3FEDB37D] [B952FA7D] CRC32
 
Vol. 2, Last Polka in Nancy? 1973 1`01`00



Vol. 2, Last Polka in Nancy 1973

1 Winter Echoes 14:47
2 Guanna Dance, Pt. 1 4:04
3 Guanna Dance, Pt. 2 11:33
4 Thinking of Monk 1:21
5 Doing the Polka 10:16
6 Two Birds With One Stone 18:56
1`01`00

 
.accurip
[CUETools log; Date: 29/06/12 00:57:03; Version: 2.1.2a]
[CTDB TOCID: 7M3e5auTUkEH_eST1KZYohVFkDs-] disk not present in database.
[AccurateRip ID: 000da8a3-0047d486-550e4b06] found.
Track [ CRC ] Status
01 [41bbd94a] (0/1) No match
02 [bfb20dfc] (0/1) No match
03 [04cb5461] (0/1) No match
04 [13969e23] (0/1) No match
05 [c1e84a69] (0/1) No match
06 [181d255b] (0/1) No match
Offsetted by 6:
01 [bab24ccc] (1/1) Accurately ripped
02 [a3d7bd28] (1/1) Accurately ripped
03 [ba2caf83] (1/1) Accurately ripped
04 [79f12745] (1/1) Accurately ripped
05 [b984406d] (1/1) Accurately ripped
06 [af0618c7] (1/1) Accurately ripped
Track Peak [ CRC32 ] [W/O NULL]
-- 98.8 [4ACB0C06] [299353B2]
01 98.8 [90656957] [5C2281BD]
02 94.6 [AF8AFEAE] [504520F9]
03 98.8 [63CE1545] [94158046]
04 67.3 [86B9A942] [A4D3C0D9]
05 98.8 [16C38039] [BED12C1E]
06 53.9 [3C9D4390] [17045F26]
другие релизы
Any questions -> support@pro-jazz.com. По всем вопросам пишите -> support@pro-jazz.com
12:49
278
Нет комментариев. Ваш будет первым!