Вы используете незарегистрированную версию компонента "Вкладки"!

Поиск

(Avant-Garde, Contemporary Jazz, Unit Records) Malcolm Braff Trio - Yele - 2006, FLAC (tracks+.cue), lossless

(Avant-Garde, Contemporary Jazz, Unit Records) Malcolm Braff Trio - Yele - 2006, FLAC (tracks+.cue), lossless
Треклист:
Malcolm Braff Trio / Yele
Жанр: Avant-Garde, Contemporary Jazz, Unit Records
Страна-производитель диска: Switzerland
Год издания: 2006
Издатель (лейбл): Unit Records
Номер по каталогу: UTR 4171
Аудиокодек: FLAC (*.flac)
Тип рипа: tracks+.cue
Битрейт аудио: lossless
Продолжительность: 1:06:28
Источник (релизер): Max Monteiro
Наличие сканов в содержимом раздачи: нет
Треклист:
1. Song of Wonderful Things (Malcolm Braff) 13:59
2. Banaré Binaré (Malcolm Braff) 6:36
3. Noémi’s Love Song (Malcolm Braff) 9:01
4. Tama (Malcolm Braff / Yaya Ouattara) 15:35
5. Yele (Yaya Ouattara) 10:29
6. The Mystery of Love (Randy Weston) 10:47
 
Лог создания рипа
Exact Audio Copy V1.0 beta 3 from 29. August 2011
EAC extraction logfile from 5. May 2013, 12:46
Malcolm Braff Trio / Yele
Used drive : SlimtypeeNAU508 5 Adapter: 1 ID: 0
Read mode : Secure
Utilize accurate stream : Yes
Defeat audio cache : Yes
Make use of C2 pointers : No
Read offset correction : 6
Overread into Lead-In and Lead-Out : No
Fill up missing offset samples with silence : Yes
Delete leading and trailing silent blocks : No
Null samples used in CRC calculations : Yes
Used interface : Native Win32 interface for Win NT & 2000
Gap handling : Appended to previous track
Used output format : User Defined Encoder
Selected bitrate : 768 kBit/s
Quality : High
Add ID3 tag : No
Command line compressor : C:\Program Files (x86)\Exact Audio Copy\Flac\flac.exe
Additional command line options : -8 -V -T "ARTIST=%artist%" -T "TITLE=%title%" -T "ALBUM=%albumtitle%" -T "DATE=%year%" -T "TRACKNUMBER=%tracknr%" -T "GENRE=%genre%" -T "PERFORMER=%albuminterpret%" -T "COMPOSER=%composer%" %haslyrics%--tag-from-file=LYRICS="%lyricsfile%"%haslyrics% -T "ALBUMARTIST=%albumartist%" -T "DISCNUMBER=%cdnumber%" -T "TOTALDISCS=%totalcds%" -T "TOTALTRACKS=%numtracks%" -T "COMMENT=%comment%" %source% -o %dest%
TOC of the extracted CD
Track | Start | Length | Start sector | End sector
---------------------------------------------------------
1 | 0:00.00 | 13:58.48 | 0 | 62897
2 | 13:58.48 | 6:36.15 | 62898 | 92612
3 | 20:34.63 | 9:01.20 | 92613 | 133207
4 | 29:36.08 | 15:35.15 | 133208 | 203347
5 | 45:11.23 | 10:29.37 | 203348 | 250559
6 | 55:40.60 | 10:47.22 | 250560 | 299106
Track 1
Filename C:\EAC rips\01 - Song of Wonderful Things.wav
Pre-gap length 0:00:02.00
Peak level 98.3 %
Extraction speed 1.2 X
Track quality 99.9 %
Test CRC 90F96543
Copy CRC 90F96543
Track not present in AccurateRip database
Copy OK
Track 2
Filename C:\EAC rips\02 - Banaré Binaré.wav
Peak level 98.3 %
Extraction speed 1.5 X
Track quality 100.0 %
Test CRC 19AC771E
Copy CRC 19AC771E
Track not present in AccurateRip database
Copy OK
Track 3
Filename C:\EAC rips\03 - Noémi's Love Song.wav
Pre-gap length 0:00:02.00
Peak level 98.1 %
Extraction speed 1.7 X
Track quality 100.0 %
Test CRC C09D0BAA
Copy CRC C09D0BAA
Track not present in AccurateRip database
Copy OK
Track 4
Filename C:\EAC rips\04 - Tama.wav
Pre-gap length 0:00:02.00
Peak level 98.3 %
Extraction speed 2.0 X
Track quality 100.0 %
Test CRC 86E03C17
Copy CRC 86E03C17
Track not present in AccurateRip database
Copy OK
Track 5
Filename C:\EAC rips\05 - Yele.wav
Pre-gap length 0:00:02.00
Peak level 97.3 %
Extraction speed 2.1 X
Track quality 99.9 %
Test CRC 5B245C80
Copy CRC 5B245C80
Track not present in AccurateRip database
Copy OK
Track 6
Filename C:\EAC rips\06 - The Mystery of Love.wav
Pre-gap length 0:00:02.00
Peak level 98.3 %
Extraction speed 2.4 X
Track quality 100.0 %
Test CRC 7B3A2126
Copy CRC 7B3A2126
Track not present in AccurateRip database
Copy OK
None of the tracks are present in the AccurateRip database
No errors occurred
End of status report
---- CUETools DB Plugin V2.1.4
[CTDB TOCID: lirSKL9Zib9rGjtkNKaBaEhs2sQ-] found
Submit result: lirSKL9Zib9rGjtkNKaBaEhs2sQ- has been confirmed
Track | CTDB Status
1 | (1/1) Accurately ripped
2 | (1/1) Accurately ripped
3 | (1/1) Accurately ripped
4 | (1/1) Accurately ripped
5 | (1/1) Accurately ripped
6 | (1/1) Accurately ripped
==== Log checksum CC16B5B64AAA125127761B7397E8524F73009F398AB92263E2E6A3A7700DB337 ====
 
Содержание индексной карты (.CUE)
REM GENRE Jazz
REM DATE 2006
REM DISCID 4A0F9406
REM COMMENT "ExactAudioCopy v1.0b3"
PERFORMER "Malcolm Braff Trio"
TITLE "Yele"
FILE "01 - Song of Wonderful Things.wav" WAVE
TRACK 01 AUDIO
TITLE "Song of Wonderful Things"
PERFORMER "Malcolm Braff Trio"
INDEX 01 00:00:00
FILE "02 - Banaré Binaré.wav" WAVE
TRACK 02 AUDIO
TITLE "Banaré Binaré"
PERFORMER "Malcolm Braff Trio"
INDEX 01 00:00:00
TRACK 03 AUDIO
TITLE "Noémi's Love Song"
PERFORMER "Malcolm Braff Trio"
INDEX 00 06:34:15
FILE "03 - Noémi's Love Song.wav" WAVE
INDEX 01 00:00:00
TRACK 04 AUDIO
TITLE "Tama"
PERFORMER "Malcolm Braff Trio"
INDEX 00 08:59:20
FILE "04 - Tama.wav" WAVE
INDEX 01 00:00:00
TRACK 05 AUDIO
TITLE "Yele"
PERFORMER "Malcolm Braff Trio"
INDEX 00 15:33:15
FILE "05 - Yele.wav" WAVE
INDEX 01 00:00:00
TRACK 06 AUDIO
TITLE "The Mystery of Love"
PERFORMER "Malcolm Braff Trio"
INDEX 00 10:27:37
FILE "06 - The Mystery of Love.wav" WAVE
INDEX 01 00:00:00
Доп. информация: Tracks 1, 2, 4, 6 recorded live in December 2000.
Tracks 3, 5 piano solo recorded at Studio du Flon, Lausanne, Switzerland.
 
Состав
Malcolm Braff – Piano
Yaya Ouattara – Djembé, Bara
Alex Blake – Bass
Any questions -> support@pro-jazz.com. По всем вопросам пишите -> support@pro-jazz.com
12:48
144
Нет комментариев. Ваш будет первым!