Вы используете незарегистрированную версию компонента "Вкладки"!

Поиск

(Avant Garde, Experimental, Rune Grammofon) Phonophani - Phonophani - 2006, FLAC (tracks+.cue) lossless

Треклист:
Phonophani / Phonophani
Жанр: Avant Garde, Experimental, Rune Grammophon
Страна-производитель диска: Norway
Год издания диска: 2006
Издатель (лейбл): Rune Grammofon
Номер по каталогу: RCD 2054
Аудио кодек: FLAC (*.flac)
Тип рипа: tracks+.cue
Битрейт аудио: lossless
Продолжительность: 75:32
Источник (релизер): what.cd (grinningcat)
Наличие сканов в содержимом раздачи: нет
Треклист:
01 I.F.A. 4:20
02 Ring 8:54
03 Zurnas 6:08
04 No Strangeclock 5:35
05 Duration-Happiness 4:43
06 Kaliphoni 3:54
07 C 4:49
08 Order Of Disappearance 5:08
09 Sol 5:45
10 Minne & Materie 5:36
Written-By - Dag-Are Haugan , Espen Sommer Eide

Bonus Tracks
11 The Boy In His Bathtub 6:15
12 Farger Rundt Hvitt 4:18
Written-By - Dag-Are Haugan , Espen Sommer Eide
13 Kreta 9:36
 
Лог создания рипа
Exact Audio Copy V0.99 prebeta 4 from 23. January 2008
EAC extraction logfile from 3. May 2009, 8:07
Phonophani / Phonophani
Used drive : PIONEER DVD-RW DVRKD08 Adapter: 1 ID: 0
Read mode : Secure
Utilize accurate stream : Yes
Defeat audio cache : Yes
Make use of C2 pointers : No
Read offset correction : 48
Overread into Lead-In and Lead-Out : No
Fill up missing offset samples with silence : Yes
Delete leading and trailing silent blocks : No
Null samples used in CRC calculations : Yes
Used interface : Native Win32 interface for Win NT & 2000
Gap handling : Appended to previous track
Used output format : User Defined Encoder
Selected bitrate : 1024 kBit/s
Quality : High
Add ID3 tag : No
Command line compressor : C:\Program Files\FLAC\flac.exe
Additional command line options : -8 -V -T "ARTIST=%a" -T "TITLE=%t" -T "ALBUM=%g" -T "DATE=%y" -T "TRACKNUMBER=%n" -T "GENRE=%m" -T "COMMENT=EAC FLAC -8" %s
TOC of the extracted CD
Track | Start | Length | Start sector | End sector
---------------------------------------------------------
1 | 0:00.00 | 4:20.01 | 0 | 19500
2 | 4:20.01 | 8:52.74 | 19501 | 59474
3 | 13:13.00 | 6:18.12 | 59475 | 87836
4 | 19:31.12 | 5:35.01 | 87837 | 112962
5 | 25:06.13 | 4:44.01 | 112963 | 134263
6 | 29:50.14 | 3:54.03 | 134264 | 151816
7 | 33:44.17 | 4:49.03 | 151817 | 173494
8 | 38:33.20 | 5:09.74 | 173495 | 196743
9 | 43:43.19 | 5:45.01 | 196744 | 222619
10 | 49:28.20 | 5:53.65 | 222620 | 249159
11 | 55:22.10 | 6:15.13 | 249160 | 277297
12 | 61:37.23 | 4:18.19 | 277298 | 296666
13 | 65:55.42 | 9:36.54 | 296667 | 339920
Track 1
Filename C:\Downloads\eac\01 - I.F.A .wav
Pre-gap length 0:00:02.00
Peak level 97.9 %
Track quality 99.9 %
Test CRC 95DB2CFE
Copy CRC 95DB2CFE
Copy OK
Track 2
Filename C:\Downloads\eac\02 - Ring .wav
Pre-gap length 0:00:09.00
Peak level 97.9 %
Track quality 100.0 %
Test CRC 6A536B20
Copy CRC 6A536B20
Copy OK
Track 3
Filename C:\Downloads\eac\03 - Zurnas .wav
Pre-gap length 0:00:09.00
Peak level 97.9 %
Track quality 100.0 %
Test CRC 82ECEEEF
Copy CRC 82ECEEEF
Copy OK
Track 4
Filename C:\Downloads\eac\04 - No Strangeclock .wav
Pre-gap length 0:00:10.00
Peak level 97.9 %
Track quality 100.0 %
Test CRC 95936D54
Copy CRC 95936D54
Copy OK
Track 5
Filename C:\Downloads\eac\05 - Duration-Happiness .wav
Pre-gap length 0:00:08.00
Peak level 97.9 %
Track quality 100.0 %
Test CRC F30D5905
Copy CRC F30D5905
Copy OK
Track 6
Filename C:\Downloads\eac\06 - Kaliphoni .wav
Pre-gap length 0:00:09.00
Peak level 83.3 %
Track quality 100.0 %
Test CRC FFDEC2B2
Copy CRC FFDEC2B2
Copy OK
Track 7
Filename C:\Downloads\eac\07 - C .wav
Pre-gap length 0:00:09.00
Peak level 97.9 %
Track quality 100.0 %
Test CRC EFC88048
Copy CRC EFC88048
Copy OK
Track 8
Filename C:\Downloads\eac\08 - Order Of Disappearance .wav
Pre-gap length 0:00:06.00
Peak level 97.9 %
Track quality 100.0 %
Test CRC 0976CAFA
Copy CRC 0976CAFA
Copy OK
Track 9
Filename C:\Downloads\eac\09 - Sol .wav
Pre-gap length 0:00:04.00
Peak level 97.9 %
Track quality 99.9 %
Test CRC 24B031D9
Copy CRC 24B031D9
Copy OK
Track 10
Filename C:\Downloads\eac\10 - Minne & Materie .wav
Pre-gap length 0:00:10.00
Peak level 97.9 %
Track quality 100.0 %
Test CRC F660FEE9
Copy CRC F660FEE9
Copy OK
Track 11
Filename C:\Downloads\eac\11 - The Boy In His Bathtub .wav
Pre-gap length 0:00:17.00
Peak level 97.8 %
Track quality 100.0 %
Test CRC 88474E7A
Copy CRC 88474E7A
Copy OK
Track 12
Filename C:\Downloads\eac\12 - Farger Rundt Hvitt .wav
Pre-gap length 0:00:07.00
Peak level 84.1 %
Track quality 100.0 %
Test CRC 0AE3EF66
Copy CRC 0AE3EF66
Copy OK
Track 13
Filename C:\Downloads\eac\13 - Kreta .wav
Pre-gap length 0:00:07.00
Peak level 98.9 %
Track quality 100.0 %
Test CRC 43EE3CDC
Copy CRC 43EE3CDC
Copy OK
No errors occurred
End of status report
 
Содержание индексной карты (.CUE)
REM GENRE Electronic
REM DATE 2006
REM DISCID C311B40D
REM COMMENT "ExactAudioCopy v0.99pb4"
PERFORMER "Phonophani"
TITLE "Phonophani"
FILE "01 - I.F.A .wav" WAVE
TRACK 01 AUDIO
TITLE "I.F.A"
PERFORMER "Phonophani"
INDEX 01 00:00:00
TRACK 02 AUDIO
TITLE "Ring"
PERFORMER "Phonophani"
INDEX 00 04:11:01
FILE "02 - Ring .wav" WAVE
INDEX 01 00:00:00
TRACK 03 AUDIO
TITLE "Zurnas"
PERFORMER "Phonophani"
INDEX 00 08:43:74
FILE "03 - Zurnas .wav" WAVE
INDEX 01 00:00:00
TRACK 04 AUDIO
TITLE "No Strangeclock"
PERFORMER "Phonophani"
INDEX 00 06:08:12
FILE "04 - No Strangeclock .wav" WAVE
INDEX 01 00:00:00
TRACK 05 AUDIO
TITLE "Duration-Happiness"
PERFORMER "Phonophani"
INDEX 00 05:27:01
FILE "05 - Duration-Happiness .wav" WAVE
INDEX 01 00:00:00
TRACK 06 AUDIO
TITLE "Kaliphoni"
PERFORMER "Phonophani"
INDEX 00 04:35:01
FILE "06 - Kaliphoni .wav" WAVE
INDEX 01 00:00:00
TRACK 07 AUDIO
TITLE "C"
PERFORMER "Phonophani"
INDEX 00 03:45:03
FILE "07 - C .wav" WAVE
INDEX 01 00:00:00
TRACK 08 AUDIO
TITLE "Order Of Disappearance"
PERFORMER "Phonophani"
INDEX 00 04:43:03
FILE "08 - Order Of Disappearance .wav" WAVE
INDEX 01 00:00:00
TRACK 09 AUDIO
TITLE "Sol"
PERFORMER "Phonophani"
INDEX 00 05:05:74
FILE "09 - Sol .wav" WAVE
INDEX 01 00:00:00
TRACK 10 AUDIO
TITLE "Minne & Materie"
PERFORMER "Phonophani"
INDEX 00 05:35:01
FILE "10 - Minne & Materie .wav" WAVE
INDEX 01 00:00:00
TRACK 11 AUDIO
TITLE "The Boy In His Bathtub"
PERFORMER "Phonophani"
INDEX 00 05:36:65
FILE "11 - The Boy In His Bathtub .wav" WAVE
INDEX 01 00:00:00
TRACK 12 AUDIO
TITLE "Farger Rundt Hvitt"
PERFORMER "Phonophani"
INDEX 00 06:08:13
FILE "12 - Farger Rundt Hvitt .wav" WAVE
INDEX 01 00:00:00
TRACK 13 AUDIO
TITLE "Kreta"
PERFORMER "Phonophani"
INDEX 00 04:11:19
FILE "13 - Kreta .wav" WAVE
INDEX 01 00:00:00
Доп. информация:
Originally released by Biophon Records in 1998.
Re-issue with 3 previously unreleased bonus tracks from the same period (tracks 11 to 13).
 
Об альбоме (сборнике)
RCD 2054 - Phonophani: Phonophani
Originally released in 1998 as a limited edition (500 only) on Biosphere's Biophon label. A breath of fresh air at the time, this excellent debut from Phonophani still stands as one of the very best electronica albums ever released in Norway. Well crafted and full of ideas and original turns, it has a rare timeless quality that makes it sound as fresh today as it did back then. It's difficult to come up with comparisons, but certain aspects of early Alog (naturally) and Boards Of Canada can serve as references. This issue includes three bonus tracks (20 minutes) from the same period.
Released 22.05.06
Reviews RCD2054
This is indeed essential listening. Because whether or not it is the best Norwegian electronica album, it’s an amazing electronica album period, and my favorite little Norwegian label has done us all a favor by re-pressing Espen Sommer Eide’s first effort under this moniker. I dare you to listen to this and not have to wrap your brain around the fact that Eide was pulling this shit in 1998, because what is most amazing is how acutely this record eerily anticipates many of the prominent trends that would become so popular with electronic music between 2000 and 2002.
Cokemachineglow (US)
Now reissued, his 1998 debut has the muted feel of worn-out tapes, or music listened to whilst submerged in water, the occational clear frequency cutting free from the muffled mass. ”Phonophani” could be considered a distant cousin of Boards Of Canada in its deliberate distancing and woozy nostalgia, but the music itself bears little resemblance.
The Wire (UK)
Originally released back in 1998 in a limited quantity (500) on Biosphere’s Biophon label, the debut effort from Phonophani is a gem of an album that’s fittingly getting a proper re-release from Rune Grammofon. A strange, eerie album created from filtered bits of what sounds like orchestral music and mutant electronic explorations, it doesn’t sound like it’s aged a bit in almost ten years. Just to sweeten the deal, three extra tracks from the same time period have been added to the re-release, filling it out a bit more and providing an even deeper glimpse as to what was being created at the same time. The album is definitely one of the more unique electronic albums that I’ve heard in awhile. Although it may seem like a vague statement to make, it’s a release that sounds like it should have a home on Rune Grammofon. Arriving somewhere between the experimental wanderings of Alog and the Nordic moans of Biosphere, it’s a weighty release that sucks you in and keeps on tugging at you until it’s all over with. Not only that, but the disc also has some of the best graphic design I’ve seen on an album this year, courtesty of the always-experimenting Kim Hiorthoy.
Almostcool (US)
The first album from Bergen’s Espen Sommer Eide under the name Phonophani is remarkable. There’s no two ways about it, this is an essential album. It may be eight years old but sounds fresher than the vast majority of new albums that have come my way. From the second “I.F.A.” starts to the time the CD spins down I was captivated. With each listen I found new sounds and textures opening up. Huge segments of the album feel alien; it doesn’t sound like a human made some of this music. At other times Eide’s personality and mortality shine through, the looped acoustic guitar and gently sung vocals on “C” show this more than anywhere else. In contrast “Zurnas” has a gorgeous rhythm not unlike the kind of unorthodox beat that Coil would use. It’s like Eide has tapped into a transmission from another dimension. The off kilter rhythms continue throughout the album; they’re compelling but just weird enough to set you at unease. It is a beautiful album from all angles; the pieces are composed and played wonderfully, the production is top notch and the sleeve fits the otherworldly feel of the music.The Norwegian government must be adding something magical to the pickled herring. I can’t think of any other reason for so much good music coming from the north. Knowing that I’ve been missing out on it for eight years is annoying but I’m delighted to have heard it. Now it’s time for me to pick through the rest of Eide’s output.
Brainwashed (US)
This is a rather beautifully packaged re-issue of Espen Sommer Eide's debut album, originally released in a limited run on Biosphere's `Biophon' imprint in1998. I must say although I am familiar with most of the Norwegian artist's output I have never come across this album before, and it is a pleasure to explore the murky depths now, 8 years after it originally landed. Unsurprisingly many tracks here bear relation to the early work of Alog (which recently featured on the killer `Hold That Totem' collection), but they also manage to retain a life and soul of their own. Another fantastic release on the Rune Grammofon imprint, I do wonder occasionally when these guys are going to slip up?? Highly recommended.
Boomkat (UK)
Phonophani uses a fine blend of computer techniques, mainly of treated orchestral instruments, sometimes recognizable and sometimes entirely abstract, to which he adds a blend of synthesizer-like sounds, that is highly atmospherical but doesn't take the listener to an easy ride in the sky. Doom loaded in ”No Strangeclock”, this is even vaguely industrial sounding, bringing the album to a somewhat odd, but captivating mix of ambient, electronica and industrial music, without falling in the trap of being too dark or showing the inhumane. Warm music from a chilling country (climate wise, that is). Great music, and good to have back in print.
Vital Weekly (NE)
The 13 tracks on ”Phonophani” strike a compelling balance between vividly organic and computer-manipulated sonic palettes (he designs his own software), manifesting what could be scores for nature documentaries on undiscovered planets. Indeed, Phonophani's approach has led to music of profound mystery and novel timbres.
Data Breaker (US)
This self-titled debut, actually a reissue from 1998 (with three additional bonus tracks), is full of classic analog electronic sounds, acoustic instruments, and voice (sampled and sung) dragged through some facial-cleansing quality mud, resulting in a soundscape where nothing really juts out into the forefront, but with a background so spacious as to be vast, all sounds existing harmoniously within a cellular whole. It's not surprising to find out that Phonophani's Espen Sommer Eide uses customized software. The sounds are unnaturally natural, all seen through the same dirty window. Imagine the score to Forbidden Planet with its deliciously subtle creepiness and timelessness, aligned with a beautiful solemnity. How ideal is that?
Other Music (US)
On this debut release, Espen Sommer Eide assembles sounds, structures and atmospheres with impressive maturity and lays down the blueprint for his work both as Phonophani and as part of Alog. While the album doesn’t go as deep into experimental territories as its successors, it is, eight years after its original release, a surprisingly fresh-sounding and relevant collection of intricate electronic music.
Londonmilk (UK)
 
Состав
Design - Kim Hiorthoy
Written-By - Espen Sommer Eide (tracks: 1 to 9, 11, 13)
Any questions -> support@pro-jazz.com. По всем вопросам пишите -> support@pro-jazz.com
07:35
218
Нет комментариев. Ваш будет первым!