Вы используете незарегистрированную версию компонента "Вкладки"!

Поиск

(Avant-Garde / Downtown / Free Improvisation / Piano Jazz / Guitar Jazz / Contemporary Jazz) Marilyn Lerner & Sonny Greenwich - Special Angel - 2003, FLAC (image+.cue) lossless

(Avant-Garde / Downtown / Free Improvisation / Piano Jazz / Guitar Jazz / Contemporary Jazz) Marilyn Lerner & Sonny Greenwich - Special Angel - 2003, FLAC (image+.cue) lossless
Треклист:
Marilyn Lerner (piano) & Sonny Greenwich (guitar) - Special Angel
Жанр: Avant-Garde / Downtown / Free Improvisation / Piano Jazz / Guitar Jazz / Contemporary Jazz
Страна-производитель диска: Canada
Год издания диска: 2003
Издатель (лейбл): CBC Records - http://www.cbcrecords.ca (CBC = Canadian Broadcasting Corporation)
Номер по каталогу: TRCD 3006
Аудио кодек: FLAC (*.flac)
Тип рипа: image+.cue
Битрейт аудио: lossless
Продолжительность: 01:06:06
Источник (релизер): собственный рип с оригинального CD (Darkman)
Наличие сканов в содержимом раздачи: да (полный набор сканов, 300 dpi)
Треклист:
01. Ainstria
02. Pajarito
03. My First and Last Love
04. Simple Pleasures
05. Canticle
06. Domino
07. Spiritual
08. Some New Day
09. Special Angel
10. Mosaic
Recorded October 8th 9th 2002, in Montreal at Studio 12, CBC Radio Canada
Доп. информация:
Очень красивый альбом!
 
"Beautiful Album"
Special Angel is a set of duets recorded in 2002 by pianist Marilyn Lerner and guitarist Sonny Greenwich. It would be hard to think of two artists who come from more diverse backgrounds and interests. While Lerner has made her reputation with klezmer music, Cuban music, and her own idiosyncratic solo piano pieces, Greenwich has taken the influence of mid-period Coltrane and spun it out through his own highly personal view of the world, in which Paul Klee, Ravel and Miles Davis hold equal weight. What brings them together, I imagine, is both their openness and innate spirituality. Whatever it is, the results are beautiful.
-- Jazz journalist James Hale @ Jazz Chronicles ( http://jazzchronicles.blogspot.com/2006_12_01_archive.html )
Marilyn Lerner - piano ( http://www.marilynlerner.com / http://www.marilynlerner.com/music.html - discography / http://www.marilynlerner.com/bio.html - bio / http://www.marilynlerner.com/download.html - Pics)) )
Sonny Greenwich - guitar ( http://www.sonnygreenwich.com / http://www.sonnygreenwich.com/disc.html - discography / http://www.sonnygreenwich.com/bio.html - bio)
 
Лог создания рипа (EAC Log)
Exact Audio Copy V0.99 prebeta 5 from 4. May 2009
EAC extraction logfile from 9. October 2010, 12:01
Lerner & Greenwich / Special Angel
Used drive : HL-DT-STDVD-RAM GSA-H54N Adapter: 0 ID: 0
Read mode : Secure
Utilize accurate stream : Yes
Defeat audio cache : Yes
Make use of C2 pointers : No
Read offset correction : 102
Overread into Lead-In and Lead-Out : No
Fill up missing offset samples with silence : Yes
Delete leading and trailing silent blocks : No
Null samples used in CRC calculations : Yes
Used interface : Native Win32 interface for Win NT & 2000
Used output format : User Defined Encoder
Selected bitrate : 320 kBit/s
Quality : High
Add ID3 tag : No
Command line compressor : C:\Program Files\Exact Audio Copy\Flac\flac.exe
Additional command line options : -8 -V %s
TOC of the extracted CD
Track | Start | Length | Start sector | End sector
---------------------------------------------------------
1 | 0:00.00 | 7:31.30 | 0 | 33854
2 | 7:31.30 | 5:25.35 | 33855 | 58264
3 | 12:56.65 | 7:14.13 | 58265 | 90827
4 | 20:11.03 | 4:20.74 | 90828 | 110401
5 | 24:32.02 | 7:47.55 | 110402 | 145481
6 | 32:19.57 | 6:13.71 | 145482 | 173527
7 | 38:33.53 | 7:21.26 | 173528 | 206628
8 | 45:55.04 | 6:11.55 | 206629 | 234508
9 | 52:06.59 | 7:18.25 | 234509 | 267383
10 | 59:25.09 | 6:41.44 | 267384 | 297502
Range status and errors
Selected range
Filename C:\EAC\Lerner & Greenwich - Special Angel.wav
Peak level 100.0 %
Range quality 100.0 %
Test CRC BB74F324
Copy CRC BB74F324
Copy OK
No errors occurred
AccurateRip summary
Track 1 not present in database
Track 2 not present in database
Track 3 not present in database
Track 4 not present in database
Track 5 not present in database
Track 6 not present in database
Track 7 not present in database
Track 8 not present in database
Track 9 not present in database
Track 10 not present in database
None of the tracks are present in the AccurateRip database
End of status report
 
Pics))
 
Об исполнителях, альбоме и т. д.
Audio Mixer: Todd Fraracci
Liner Note Author: Larry Cramer
Illustrator: Kazuo Nakamura
Photographers: Carlo Catenazzi; Paul J. Hoeffler
Translator: Suzanne Anfossi
In October of 2004, the Sonny Greenwich / Marilyn Lerner "Special Angel" CD (CBC Records) won the Western Canadian Music Award (in Calgary, Alberta) in the Outstanding Jazz Recording category.
Customer Review @ Amazon:
5.0 out of 5 stars - Special Album, January 27, 2004
By: Jan P. Dennis "Longboard jazzer" (Monument, CO USA)
A guitar/piano duet album presents unique challenges. For example, these instruments share a similar sound signature and timbre--percussive, ringing, and without extensive overtones to add coloration. Plus, there's no bottom to anchor things, no drums to create rhythmic drive, placing a premium on rhythmic invention and harmonic interaction.
These two players, veterans of the Canadian jazz scene, here overcome the obstacles with remarkable aplomb and invention, producing an entirely satisfying jazz recording of the highest caliber.
Sonny Greenwich should be familiar to any serious jazz fan. A guitarist possessed of a unique approach to his instrument, impeccable taste, and a glorious tone, his commanding presence is more than a match for the inimitable Marilyn Lerner. The latter, a mainstay of both the Canadian jazz and New Music scenes, exhibits complete mastery of the piano as she subtly shifts between blues, caberet, ballads, folkloric materials, deeply infused spirtual numbers, and Latin moods.
The two players lock into these varied sensibilites with such ease and facilty that it's hard to believe they've never played together before.
An unusual but highly satisfying session.
По всем вопросам пишите личное сообщение пользователю M0p94ok.
04:16
227
Нет комментариев. Ваш будет первым!