Поиск

(Avant-Garde / Downtown / Free Improvisation / Guitar Jazz / Piano Jazz / Contemporary Jazz) Larry Roy & Marilyn Lerner (with Peter Erskine) - Quarter to Three - 1992, FLAC (image+.cue) lossless

(Avant-Garde / Downtown / Free Improvisation / Guitar Jazz / Piano Jazz / Contemporary Jazz) Larry Roy & Marilyn Lerner (with Peter Erskine) - Quarter to Three - 1992, FLAC (image+.cue) lossless
Треклист:
Larry Roy & Marilyn Lerner (with Peter Erskine) - Quarter to Three
Жанр: Avant-Garde / Downtown / Free Improvisation / Guitar Jazz / Piano Jazz / Contemporary Jazz
Страна-производитель диска: Canada
Год издания диска: 1992
Издатель (лейбл): Justin Time Records
Номер по каталогу: JTR 8437-2
Аудио кодек: FLAC (*.flac)
Тип рипа: image+.cue
Битрейт аудио: lossless
Продолжительность: 53:44
Источник (релизер): собственный рип с оригинального CD (Darkman)
Наличие сканов в содержимом раздачи: да (полный набор сканов, 300 dpi)
Треклист:
1. Domestic Giant and Jazz Player - 7:55 (M. Lerner)
2. Blue For "J" - 7:13 (L. Roy)
3. Quarter to Three - 11:00 (L. Roy)
4. Caravan - 7:55 (D. Ellington / J. Tizol)
5. Gridlock - 10:07 (Knut Haugsoen)
6. Melancholy Maybe - 4:26 (M. Lerner)
7. St. Thomas - 4:48 (Sonny Rollins)
Larry Roy - Guitar
Marilyn Lerner - Piano
Mike Downes - Bass
Peter Erskine - Drums ( http://www.petererskine.com/90.htm - Discography (1990s) )
Stefan Bauer - Vibes
Arranged by Larry Roy and Rob Siwick
Pour Michel C.
Recorded February 24-26, 1991 at Finnucan Studios, Winnipeg, Manitoba.
Produced by: Larry Roy
Co-Produced by: Stefan Bauer and Marilyn Lerner
Mastered by: Ian Terry and Bill Kipper at SNB Montreal
Produced with the assistance of the Canada Manitoba Cultural Industries Development Office (C.I.D.O.)
Special Thanks to:
Stefan Bauer, Peter Erskine, Mike Downes, John Abercrombie, Howard Rissin
 
Лог создания рипа (EAC Log)
Exact Audio Copy V0.99 prebeta 5 from 4. May 2009
EAC extraction logfile from 9. October 2010, 13:05
Larry Roy and Marilyn Lerner / Quarter To Three
Used drive : HL-DT-STDVD-RAM GSA-H54N Adapter: 0 ID: 0
Read mode : Secure
Utilize accurate stream : Yes
Defeat audio cache : Yes
Make use of C2 pointers : No
Read offset correction : 102
Overread into Lead-In and Lead-Out : No
Fill up missing offset samples with silence : Yes
Delete leading and trailing silent blocks : No
Null samples used in CRC calculations : Yes
Used interface : Native Win32 interface for Win NT & 2000
Used output format : User Defined Encoder
Selected bitrate : 320 kBit/s
Quality : High
Add ID3 tag : No
Command line compressor : C:\Program Files\Exact Audio Copy\Flac\flac.exe
Additional command line options : -8 -V %s
TOC of the extracted CD
Track | Start | Length | Start sector | End sector
---------------------------------------------------------
1 | 0:00.00 | 7:57.45 | 0 | 35819
2 | 7:57.45 | 7:16.57 | 35820 | 68576
3 | 15:14.27 | 10:59.13 | 68577 | 118014
4 | 26:13.40 | 7:59.05 | 118015 | 153944
5 | 34:12.45 | 10:06.17 | 153945 | 199411
6 | 44:18.62 | 4:32.68 | 199412 | 219879
7 | 48:51.55 | 4:52.47 | 219880 | 241826
Range status and errors
Selected range
Filename C:\EAC\Marilyn Lerner and Larry Roy - Quarter To Three.wav
Peak level 94.6 %
Range quality 99.9 %
Test CRC FAEADF33
Copy CRC FAEADF33
Copy OK
No errors occurred
AccurateRip summary
Track 1 not present in database
Track 2 not present in database
Track 3 not present in database
Track 4 not present in database
Track 5 not present in database
Track 6 not present in database
Track 7 not present in database
None of the tracks are present in the AccurateRip database
End of status report
 
Pics))
 
Об исполнителях и альбоме
"Quarter to Three" ... is of Canadian origin, recorded in Winnipeg by guitarist Larry Roy and pianist Marilyn Lerner with bass player Mike Downes. Whether or not this trio works together regularly is not disclosed in the 'notes' which again consist of a list of names of people not actually on the record. ("Our thanks to . . Heather and Wayne at M. and M. Star Bar and Grill" is typical; is this some kind of code, I wonder?) The music is much better; Lerner and Roy work extremely well together especially with the guest appearance on all tracks of that outstanding American drummer Peter Erskine (late Stan Kenton and Weather Report) and vibraphonist Stefan Bauer on Quarter To Three and Gridlock. The music takes on the quality of a more muscular MJQ at times but that is only a superficial resemblance; Marilyn and Larry are first rate players and there is an obvious enjoyment manifested in their version of Sonny Rollins's attractive Si Thomas.
-- ALUN MORGAN ... Source: ( Gramophone.Net )
Код:
http://www.gramophone.net/Issue/Page/February%201993/88/747502/%281%29+The+Charmer+1991,+1992.+Charles+Fambrough.+CTI+%28I%29+R2+79484+%2843+minutes%3A+DDD%29.#header-logo
Классный альбом!
По всем вопросам пишите личное сообщение пользователю M0p94ok.
04:17
305
Нет комментариев. Ваш будет первым!