Вы используете незарегистрированную версию компонента "Вкладки"!

Поиск

(Avant-Garde,Contemporary) Ned Rothenberg Double Band - Real and Imagined Time - 1995, APE (image+.cue), lossless

(Avant-Garde,Contemporary) Ned Rothenberg Double Band - Real and Imagined Time - 1995, APE (image+.cue), lossless
Треклист:
Ned Rothenberg Double Band - Real and Imagined Time
Жанр: Avant-Garde,Contemporary
Год выпуска диска: 1995
Производитель диска: Moers Music (Germany)
Аудио кодек: APE
Тип рипа: image+.cue
Битрейт аудио: lossless
Продолжительность: 59:45
Трэклист:
1. Railbread 6:32
2. Goon Squad 7:26
3. Real and Imagined Time 13:37
4. The Medley of Unbroken Lines: Once and Future/Freeka Seven/Open Jaw 18:16
5. Waltz Fracture 5:40
6. Fits and Starts 8:10
Personnel:
Ned Rothenberg - alto saxophone, flute
Thomas Chapin - alto and soprano saxophones, flute
Jerome Harris - electric bass, electric guitar
Chris Wood - electric bass
Jim Black - drums
Billy Martin - drums
Отчет ЕАС:
 
скрытый текст
Exact Audio Copy V0.99 prebeta 4 from 23. January 2008
EAC extraction logfile from 10. January 2010, 16:48
Ned Rothenberg Double Band / Real and Imagined Time
Used drive : Optiarc DVD RW AD-7173A Adapter: 1 ID: 0
Read mode : Secure
Utilize accurate stream : Yes
Defeat audio cache : Yes
Make use of C2 pointers : No
Read offset correction : 48
Overread into Lead-In and Lead-Out : No
Fill up missing offset samples with silence : Yes
Delete leading and trailing silent blocks : No
Null samples used in CRC calculations : No
Used interface : Native Win32 interface for Win NT & 2000
Used output format : Internal WAV Routines
Sample format : 44.100 Hz; 16 Bit; Stereo
TOC of the extracted CD
Track | Start | Length | Start sector | End sector
---------------------------------------------------------
1 | 0:00.00 | 6:32.50 | 0 | 29449
2 | 6:32.50 | 7:26.20 | 29450 | 62919
3 | 13:58.70 | 13:37.22 | 62920 | 124216
4 | 27:36.17 | 18:16.03 | 124217 | 206419
5 | 45:52.20 | 5:40.45 | 206420 | 231964
6 | 51:32.65 | 8:10.10 | 231965 | 268724
Range status and errors
Selected range
Filename C:\APE Jazz\Ned Rothenberg- Real & Imagined Time\Ned Rothenberg Double Band - Real and Imagined Time.wav
Peak level 96.3 %
Range quality 99.9 %
Copy CRC DC91B582
Copy OK
No errors occurred
End of status report
По всем вопросам пишите личное сообщение пользователю M0p94ok.
18:07
134
Нет комментариев. Ваш будет первым!