Вы используете незарегистрированную версию компонента "Вкладки"!

Поиск

(Avant-Garde,Contemporary) Ned Rothenberg & Denman Maroney-Tools of the Trade - 2001, APE (image+.cue), lossless

(Avant-Garde,Contemporary) Ned Rothenberg & Denman Maroney-Tools of the Trade - 2001, APE (image+.cue), lossless
Треклист:
Ned Rothenberg & Denman Maroney-Tools of the Trade
Жанр: Avant-Garde,Contemporary
Год выпуска диска: 2001
Производитель диска: CIMP (USA)
Аудио кодек: APE
Тип рипа: image+.cue
Битрейт аудио: lossless
Продолжительность: 61:15
Трэклист:
1. Saw
2. Jug
3. Plank
4. Plane
5. Crab
6. Skeleton
7. Feet
8. Ham
9. Drill
Personnel:
Ned Rothenberg- clarinet, bass clarinet, alto saxophone;
Denman Maroney- piano
Recorded: June 5, 2001, Canton, NY
Отчет ЕАС:
 
скрытый текст
Exact Audio Copy V0.99 prebeta 4 from 23. January 2008
Отчёт EAC об извлечении, выполненном 10. января 2010, 18:15
Ned Rothenberg & Denman Maroney / Tools of the Trade
Дисковод: Optiarc DVD RW AD-7173A Adapter: 1 ID: 0
Режим чтения : Достоверность
Использование точного потока : Да
Отключение кэша аудио : Да
Использование указателей C2 : Нет
Коррекция смещения при чтении : 48
Способность читать области Lead-in и Lead-out : Нет
Заполнение пропущенных сэмплов тишиной : Да
Удаление блоков с тишиной в начале и конце : Нет
При вычислениях CRC использовались нулевые сэмплы : Да
Интерфейс : Встроенный Win32-интерфейс для Win NT/2000
Выходной формат : Внутренние WAV-операции
Формат сэмплов : 44.100 Гц; 16 бит; стерео
TOC извлечённого CD
Трек | Старт | Длительность | Начальный сектор | Конечный сектор
---------------------------------------------------------------------
1 | 0:00.00 | 7:02.54 | 0 | 31703
2 | 7:02.54 | 8:19.40 | 31704 | 69168
3 | 15:22.19 | 11:31.45 | 69169 | 121038
4 | 26:53.64 | 9:02.22 | 121039 | 161710
5 | 35:56.11 | 7:35.65 | 161711 | 195900
6 | 43:32.01 | 6:15.22 | 195901 | 224047
7 | 49:47.23 | 7:24.33 | 224048 | 257380
8 | 57:11.56 | 3:46.66 | 257381 | 274396
9 | 60:58.47 | 4:10.46 | 274397 | 293192
Характеристики диапазона извлечения и сообщения об ошибках
Выбранный диапазон
Имя файла C:\APE Jazz\Ned Rothenberg & Denman Maroney-Tools of the Trade\Ned Rothenberg & Denman Maroney - Tools of the Trade.wav
Пиковый уровень 73.3 %
Качество диапазона 100.0 %
CRC копии 4D0C5566
Копирование... OK
Ошибок не произошло
Конец отчёта
Any questions -> support@pro-jazz.com. По всем вопросам пишите -> support@pro-jazz.com
18:08
152
Нет комментариев. Ваш будет первым!