Поиск

(Avant-Garde, Contemporary Jazz, Klezmer, Jewish Music) Hasidic New Wave - Discography - 6 альбомов - 1997-2001, FLAC (tracks+.cue), lossless

(Avant-Garde, Contemporary Jazz, Klezmer, Jewish Music) Hasidic New Wave - Discography - 6 альбомов - 1997-2001, FLAC (tracks+.cue), lossless
Треклист:

Hasidic New Wave - Discography - 6 альбомов - 1997-2001
Леонид АУСКЕРН: две эффектные цитаты из американской прессы. “Hasidic New Wave” женят хасидскую свадебную музыку на авангардном джазе” (“Entertainment Weekly”). “Сан Ра встречается с Джими Хендриксом на еврейской свадьбе” (“CMJ New Music Report”). Я бы сказал иначе. И Сан Ра, и Хендрикс, а иногда и Орнетт Коулмэн не только посещают свадьбу, а совершают обширную экскурсию в мире врейской традиции, и стоит последовать за ними в этом творчески весьма убедительном путешествии.
Страна исполнителя: USA
Жанр: Avant-Garde, Contemporary Jazz, Klezmer, Jewish Music || Аудио кодек: FLAC || Тип рипа: (tracks + .cue) || Битрейт аудио: lossless || Включает: Full artwork || Общая длительность: 4:49:55 || Источник : Demonoid, Other trackers
 
1997 Jews And The Abstract Truth (1:01:07)
Дата записи: Mar 12, 1996-Nov 5, 1996
Год издания оригинала: Mar 18, 1997
Страна - производитель диска: US
Издатель (лейбл): Knitting Factory
Номер по каталогу: KFW 192
Тип: Album
Записано: 12th March & 10th October 1996 at the Knitting Factory, NYC.
Tracks 4, 5, 7 & 10 recorded live 5th November 1993 in Cologne.
Трэклист:
1 Satmer Hakafos #6 (Hasidic New Wave ...) 8:35
2 Sim Shalom (London) 10:05
3 Tzur Mishelo (Hasidic New Wave ...) 6:56
4 Last Temptation of Lady L [live] (Wall) 6:07
5 Eliyahu Hanove [live] (London, Traditional) 3:30
6 V'smachta (Hasidic New Wave ...) 3:01
7 Welcome to the McDonald's in Dachau (Goldberg, London, Wall) 4:46
8 Debka (Hasidic New Wave ...) 5:30
9 Bobover Wedding March (Hasidic New Wave ...) 5:40
10 Finale: 'Juba'/Sh#6 (Reprise) [live] (Hasidic New Wave ...) 6:52
 
Лог создания рипа
EAC extraction logfile from 19. May 2007, 22:10 for CD
Hasidic New Wave / [1997] Jews and the Abstract Truth
Used drive : Memorex DVD+/-RW True8XI Adapter: 1 ID: 0
Read mode : Secure with C2, accurate stream, disable cache
Read offset correction : 12
Overread into Lead-In and Lead-Out : No
Used output format : Internal WAV Routines
44.100 Hz; 16 Bit; Stereo
Other options :
Fill up missing offset samples with silence : Yes
Delete leading and trailing silent blocks : No
Installed external ASPI interface
Track 1
Filename C:\Uploading\Demonoid\Hasidic New Wave\[1997] Jews and the Abstract Truth\01 - Satmer Hakafos #6.wav
Pre-gap length 0:00:02.60
Peak level 97.4 %
Track quality 100.0 %
Copy CRC FCDA4ECC
Copy OK
Track 2
Filename C:\Uploading\Demonoid\Hasidic New Wave\[1997] Jews and the Abstract Truth\02 - Sim Shalom.wav
Pre-gap length 0:00:02.69
Peak level 100.0 %
Track quality 100.0 %
Copy CRC 88F9210E
Copy OK
Track 3
Filename C:\Uploading\Demonoid\Hasidic New Wave\[1997] Jews and the Abstract Truth\03 - Tzur Mishelo.wav
Pre-gap length 0:00:02.36
Peak level 97.7 %
Track quality 100.0 %
Copy CRC 82D2F63F
Copy OK
Track 4
Filename C:\Uploading\Demonoid\Hasidic New Wave\[1997] Jews and the Abstract Truth\04 - Last Temptation of Lady L.wav
Pre-gap length 0:00:00.26
Peak level 84.6 %
Track quality 100.0 %
Copy CRC 7A50F096
Copy OK
Track 5
Filename C:\Uploading\Demonoid\Hasidic New Wave\[1997] Jews and the Abstract Truth\05 - Eliyahu Hanovi.wav
Peak level 38.1 %
Track quality 100.0 %
Copy CRC 9E390E6A
Copy OK
Track 6
Filename C:\Uploading\Demonoid\Hasidic New Wave\[1997] Jews and the Abstract Truth\06 - V'smachta.wav
Pre-gap length 0:00:01.69
Peak level 100.0 %
Track quality 99.8 %
Copy CRC 647B0ADB
Copy OK
Track 7
Filename C:\Uploading\Demonoid\Hasidic New Wave\[1997] Jews and the Abstract Truth\07 - Welcome to the McDonald's in Dachau.wav
Pre-gap length 0:00:02.69
Peak level 38.4 %
Track quality 100.0 %
Copy CRC E3A4B4AB
Copy OK
Track 8
Filename C:\Uploading\Demonoid\Hasidic New Wave\[1997] Jews and the Abstract Truth\08 - Debka.wav
Pre-gap length 0:00:02.78
Peak level 72.5 %
Track quality 100.0 %
Copy CRC 678A5B5A
Copy OK
Track 9
Filename C:\Uploading\Demonoid\Hasidic New Wave\[1997] Jews and the Abstract Truth\09 - Bobover Wedding March.wav
Pre-gap length 0:00:02.42
Peak level 75.4 %
Track quality 100.0 %
Copy CRC 7B949D7D
Copy OK
Track 10
Filename C:\Uploading\Demonoid\Hasidic New Wave\[1997] Jews and the Abstract Truth\10 - Finale- `Juba'.wav
Pre-gap length 0:00:01.69
Peak level 87.2 %
Track quality 100.0 %
Copy CRC 0401AF2F
Copy OK
No errors occured
End of status report
 
Содержание индексной карты (.CUE):
REM GENRE Jazz
REM DATE 1997
REM DISCID 7C0E530A
REM COMMENT "ExactAudioCopy v0.95b3"
CATALOG 1001063973006
PERFORMER "Hasidic New Wave"
TITLE "[1997] Jews and the Abstract Truth"
FILE "01 - Satmer Hakafos #6.wav" WAVE
TRACK 01 AUDIO
TITLE "Satmer Hakafos #6"
PERFORMER "Hasidic New Wave"
PREGAP 00:00:45
INDEX 01 00:00:00
TRACK 02 AUDIO
TITLE "Sim Shalom"
PERFORMER "Hasidic New Wave"
INDEX 00 08:32:43
FILE "02 - Sim Shalom.wav" WAVE
INDEX 01 00:00:00
TRACK 03 AUDIO
TITLE "Tzur Mishelo"
PERFORMER "Hasidic New Wave"
INDEX 00 10:03:35
FILE "03 - Tzur Mishelo.wav" WAVE
INDEX 01 00:00:00
TRACK 04 AUDIO
TITLE "Last Temptation of Lady L"
PERFORMER "Hasidic New Wave"
INDEX 00 06:56:48
FILE "04 - Last Temptation of Lady L.wav" WAVE
INDEX 01 00:00:00
FILE "05 - Eliyahu Hanovi.wav" WAVE
TRACK 05 AUDIO
TITLE "Eliyahu Hanovi"
PERFORMER "Hasidic New Wave"
INDEX 01 00:00:00
TRACK 06 AUDIO
TITLE "V'smachta"
PERFORMER "Hasidic New Wave"
INDEX 00 03:29:08
FILE "06 - V'smachta.wav" WAVE
INDEX 01 00:00:00
TRACK 07 AUDIO
TITLE "Welcome to the McDonald's in Dachau"
PERFORMER "Hasidic New Wave"
INDEX 00 02:58:26
FILE "07 - Welcome to the McDonald's in Dachau.wav" WAVE
INDEX 01 00:00:00
TRACK 08 AUDIO
TITLE "Debka"
PERFORMER "Hasidic New Wave"
INDEX 00 04:43:23
FILE "08 - Debka.wav" WAVE
INDEX 01 00:00:00
TRACK 09 AUDIO
TITLE "Bobover Wedding March"
PERFORMER "Hasidic New Wave"
INDEX 00 05:28:01
FILE "09 - Bobover Wedding March.wav" WAVE
INDEX 01 00:00:00
TRACK 10 AUDIO
TITLE "Finale: `Juba'"
PERFORMER "Hasidic New Wave"
INDEX 00 05:38:70
FILE "10 - Finale- `Juba'.wav" WAVE
INDEX 01 00:00:00
 
Лог проверки качества
2928348518 90893084 01 - Satmer Hakafos #6.wav
3164137005 106867868 02 - Sim Shalom.wav
3086807537 73542380 03 - Tzur Mishelo.wav
3399459584 64849388 04 - Last Temptation of Lady L.wav
291922151 37185164 05 - Eliyahu Hanovi.wav
700796697 31935500 06 - V'smachta.wav
859117901 50466908 07 - Welcome to the McDonald's in Dachau.wav
1144910163 58289660 08 - Debka.wav
3704803783 60086588 09 - Bobover Wedding March.wav
2881255350 72801500 10 - Finale- `Juba'.wav
auCDtect: CD records authenticity detector, version 0.8.2
Copyright (c) 2004 Oleg Berngardt. All rights reserved.
Copyright (c) 2004 Alexander Djourik. All rights reserved.
------------------------------------------------------------
Processing file: [01 - Satmer Hakafos #6.wav]
------------------------------------------------------------
This track looks like CDDA with probability 100%
------------------------------------------------------------
Processing file: [02 - Sim Shalom.wav]
------------------------------------------------------------
This track looks like CDDA with probability 100%
------------------------------------------------------------
Processing file: [03 - Tzur Mishelo.wav]
------------------------------------------------------------
This track looks like CDDA with probability 100%
------------------------------------------------------------
Processing file: [04 - Last Temptation of Lady L.wav]
------------------------------------------------------------
This track looks like CDDA with probability 100%
------------------------------------------------------------
Processing file: [05 - Eliyahu Hanovi.wav]
------------------------------------------------------------
This track looks like CDDA with probability 100%
------------------------------------------------------------
Processing file: [06 - V'smachta.wav]
------------------------------------------------------------
This track looks like CDDA with probability 99%
------------------------------------------------------------
Processing file: [07 - Welcome to the McDonald's in Dachau.wav]
------------------------------------------------------------
This track looks like CDDA with probability 100%
------------------------------------------------------------
Processing file: [08 - Debka.wav]
------------------------------------------------------------
This track looks like CDDA with probability 100%
------------------------------------------------------------
Processing file: [09 - Bobover Wedding March.wav]
------------------------------------------------------------
This track looks like CDDA with probability 100%
------------------------------------------------------------
Processing file: [10 - Finale- `Juba'.wav]
------------------------------------------------------------
This track looks like CDDA with probability 100%
------------------------------------------------------------
Final Conclusion:
------------------------------------------------------------
These tracks looks like CDDA with probability 100%
 
Лог CUETools
[CUETools log; Date: 2/27/2018 7:31:39 AM; Version: 2.1.5]
Pregap length 00:00:45.
[CTDB TOCID: Z34oAiW3m6UEro..GJwqa0pQUjc-] found.
Track | CTDB Status
1 | (10/11) Accurately ripped
2 | (10/11) Accurately ripped
3 | ( 9/11) Accurately ripped
4 | (10/11) Accurately ripped
5 | (10/11) Accurately ripped
6 | (10/11) Accurately ripped
7 | ( 9/11) Accurately ripped, or (1/11) differs in 939 samples @01:18:20,01:18:37,01:18:53-01:18:54,01:18:70-01:18:71,01:20:56-01:20:57,01:20:73-01:20:74,01:21:15-01:21:16,01:21:32-01:21:33,01:21:49-01:21:50,01:21:66-01:21:67,01:22:08-01:22:09,01:22:25-01:22:26,01:22:42-01:22:43,01:23:01,01:23:18,01:23:51-01:23:52,01:24:10-01:24:11,01:24:45,01:25:03-01:25:04
8 | ( 8/11) Accurately ripped
9 | ( 9/11) Accurately ripped
10 | (10/11) Accurately ripped
[AccurateRip ID: 001915e0-00c108bc-7c0e530a] found.
Track [ CRC | V2 ] Status
01 [dcda7a76|5dc824ac] (0+4/4) Accurately ripped
02 [401b01e6|4dd414d9] (0+4/4) Accurately ripped
03 [8efcbdde|5e2005ca] (0+4/4) Accurately ripped
04 [71b65373|f0c96d9c] (0+4/4) Accurately ripped
05 [dff7ad97|1fb7fd66] (0+4/4) Accurately ripped
06 [5f580241|11013af1] (0+4/4) Accurately ripped
07 [9cc2ab52|ddd1f648] (0+4/4) Accurately ripped
08 [c8877932|0123be5a] (0+4/4) Accurately ripped
09 [7cda5255|4e41a240] (0+4/4) Accurately ripped
10 [4d27850a|1de83499] (0+4/4) Accurately ripped
Track Peak [ CRC32 ] [W/O NULL] [ LOG ]
-- 100.0 [17856404] [CE60D139]
01 97.4 [3DA23136] [FCDA4ECC] W/O NULL
02 100.0 [CE994CDD] [88F9210E] W/O NULL
03 97.7 [9C6472A2] [82D2F63F] W/O NULL
04 84.6 [30A166F8] [7A50F096] W/O NULL
05 38.1 [9A50DE29] [9E390E6A] W/O NULL
06 100.0 [EAF1A37B] [647B0ADB] W/O NULL
07 38.4 [A4A565D7] [E3A4B4AB] W/O NULL
08 72.5 [9FFB6518] [678A5B5A] W/O NULL
09 75.4 [91D3BC2C] [7B949D7D] W/O NULL
10 87.2 [AB0FA63F] [0401AF2F] W/O NULL
 
Замер динамического диапазона
foobar2000 1.3.10 / Замер динамического диапазона (DR) 1.1.1
Дата отчёта: 2018-03-09 15:28:02
--------------------------------------------------------------------------------
Анализ: Hasidic New Wave / Jews And The Abstract Truth
--------------------------------------------------------------------------------
DR Пики RMS Продолжительность трека
--------------------------------------------------------------------------------
DR15 -0.22 дБ -17.87 дБ 8:35 01-Satmer Hakafos #6
DR16 0.00 дБ -19.77 дБ 10:06 02-Sim Shalom
DR20 -0.20 дБ -26.92 дБ 6:57 03-Tzur Mishelo
DR16 -1.44 дБ -21.20 дБ 6:08 04-Last Temptation of Lady L
DR12 -8.36 дБ -24.25 дБ 3:31 05-Eliyahu Hanovi
DR16 0.00 дБ -17.88 дБ 3:01 06-V'smachta
DR14 -8.29 дБ -27.99 дБ 4:46 07-Welcome to the McDonald's in Dachau
DR13 -2.79 дБ -18.68 дБ 5:30 08-Debka
DR16 -2.44 дБ -24.65 дБ 5:41 09-Bobover Wedding March
DR14 -1.19 дБ -18.30 дБ 6:53 10-Finale- `Juba'
--------------------------------------------------------------------------------
Количество треков: 10
Реальные значения DR: DR15
Частота: 44100 Гц
Каналов: 2
Разрядность: 16
Битрейт: 800 кбит/с
Кодек: FLAC
================================================================================

 
Состав
Bass – Kenny Davis
Drums – Aaron Alexander
Guitar – David Fiuczynski
Tenor Saxophone – Greg Wall
Trumpet – Frank London
Guests:
Bass – Bentsi Gafni (tracks: 4, 5, 10)
Drums, Percussion – Shlomo Deshet (tracks: 4, 5, 10)
Organ - Anthony Coleman (10)
Bass Clarinet - Ben Goldberg (7)
Guitar - Gary Lucas (10)
 
1998 Live in Cracow (54:09)
Дата записи: at the Bagatela Theatre, Cracow, Poland on June 30th, 1998 during The 8th Jewish Culture Festival in Cracow
Год издания оригинала: 1998
Страна - производитель диска: Poland
Издатель (лейбл): NotTwo
Номер по каталогу: MV 706-2
Тип: Live, Digipak
Трэклист:
1. Al-Osfour Al-Majnoun (Frank London) 8:57
2. Transcendence (Fima Ephron) 5:49
3. 09:36 (Frank London) 9:36
4. Blues In Exile (Greg Wall) 8:01
5. Satmer Hakofos Nign 12:35
6. A.K.S. (Aaron Alexander) 6:32
7. V'Smakhta 2:39
 
Лог создания рипа
Exact Audio Copy V1.0 beta 2 from 29. April 2011
EAC extraction logfile from 21. May 2012, 20:08
Hasidic New Wave / Live in Cracow
Used drive : TSSTcorpCDDVDW SH-S222A Adapter: 1 ID: 0
Read mode : Secure
Utilize accurate stream : Yes
Defeat audio cache : Yes
Make use of C2 pointers : No
Read offset correction : 6
Overread into Lead-In and Lead-Out : No
Fill up missing offset samples with silence : Yes
Delete leading and trailing silent blocks : No
Null samples used in CRC calculations : Yes
Used interface : Native Win32 interface for Win NT & 2000
Gap handling : Appended to previous track
Used output format : User Defined Encoder
Selected bitrate : 896 kBit/s
Quality : High
Add ID3 tag : No
Command line compressor : C:\Tool\CD\EAC10\FLAC\FLAC.EXE
Additional command line options : -6 -V -T "ARTIST=%artist%" -T "TITLE=%title%" -T "ALBUM=%albumtitle%" -T "DATE=%year%" -T "TRACKNUMBER=%tracknr%" -T "GENRE=%genre%" -T "COMMENT=%comment%" -T "BAND=%albuminterpret%" -T "COMPOSER=%composer%" %haslyrics%--ta
TOC of the extracted CD
Track | Start | Length | Start sector | End sector
---------------------------------------------------------
1 | 0:00.00 | 8:57.16 | 0 | 40290
2 | 8:57.16 | 5:49.26 | 40291 | 66491
3 | 14:46.42 | 9:36.10 | 66492 | 109701
4 | 24:22.52 | 8:01.19 | 109702 | 145795
5 | 32:23.71 | 12:34.27 | 145796 | 202372
6 | 44:58.23 | 6:32.02 | 202373 | 231774
7 | 51:30.25 | 2:39.33 | 231775 | 243732
Track 1
Filename C:\! UPLOAD\Hasidic New Wave - Live in Cracow (1998) [FLAC] {NotTwo}\01 - Al-Osfour Al-Majnoun.wav
Pre-gap length 0:00:02.00
Peak level 99.8 %
Extraction speed 3.6 X
Track quality 100.0 %
Test CRC B3CCE24F
Copy CRC B3CCE24F
Accurately ripped (confidence 1) [9139F0A5] (AR v1)
Copy OK
Track 2
Filename C:\! UPLOAD\Hasidic New Wave - Live in Cracow (1998) [FLAC] {NotTwo}\02 - Transcendence.wav
Peak level 99.8 %
Extraction speed 3.5 X
Track quality 100.0 %
Test CRC 21BA4930
Copy CRC 21BA4930
Accurately ripped (confidence 1) [CF2E7595] (AR v1)
Copy OK
Track 3
Filename C:\! UPLOAD\Hasidic New Wave - Live in Cracow (1998) [FLAC] {NotTwo}\03 - Hebe Bop.wav
Peak level 99.8 %
Extraction speed 3.7 X
Track quality 100.0 %
Test CRC FE6AEEDD
Copy CRC FE6AEEDD
Accurately ripped (confidence 1) [E5129717] (AR v1)
Copy OK
Track 4
Filename C:\! UPLOAD\Hasidic New Wave - Live in Cracow (1998) [FLAC] {NotTwo}\04 - Blues in exile.wav
Peak level 99.8 %
Extraction speed 3.7 X
Track quality 100.0 %
Test CRC D4D050B9
Copy CRC D4D050B9
Accurately ripped (confidence 1) [AAD563B7] (AR v1)
Copy OK
Track 5
Filename C:\! UPLOAD\Hasidic New Wave - Live in Cracow (1998) [FLAC] {NotTwo}\05 - Satmer Hakofos Nign.wav
Peak level 99.8 %
Extraction speed 3.8 X
Track quality 100.0 %
Test CRC C6431E87
Copy CRC C6431E87
Accurately ripped (confidence 1) [BF638A1C] (AR v1)
Copy OK
Track 6
Filename C:\! UPLOAD\Hasidic New Wave - Live in Cracow (1998) [FLAC] {NotTwo}\06 - A.K.S..wav
Peak level 99.8 %
Extraction speed 3.6 X
Track quality 100.0 %
Test CRC 8C5FCD7F
Copy CRC 8C5FCD7F
Accurately ripped (confidence 1) [2BC0F1FB] (AR v1)
Copy OK
Track 7
Filename C:\! UPLOAD\Hasidic New Wave - Live in Cracow (1998) [FLAC] {NotTwo}\07 - V'Smakhta.wav
Peak level 99.8 %
Extraction speed 3.0 X
Track quality 100.0 %
Test CRC 46D962AC
Copy CRC 46D962AC
Accurately ripped (confidence 1) [C6CEC213] (AR v1)
Copy OK
All tracks accurately ripped
No errors occurred
End of status report
---- CUETools DB Plugin V2.1.2
[CTDB TOCID: L4gCLQoPFZumxIsh9SYDsb95owk-] disk not present in database, Submit result: L4gCLQoPFZumxIsh9SYDsb95owk- has been uploaded
==== Log checksum 7D42D05C0DE037CAB07B3FDD22395DA436546BA2CB8035932890E62FCF9D6CC5 ====
 
Содержание индексной карты (.CUE):
REM GENRE Klezmer
REM DATE 1998
REM DISCID 640CB107
REM COMMENT "ExactAudioCopy v1.0b2"
CATALOG 0000000000000
PERFORMER "Hasidic New Wave"
TITLE "Live in Cracow"
FILE "01 - Al-Osfour Al-Majnoun.wav" WAVE
TRACK 01 AUDIO
TITLE "Al-Osfour Al-Majnoun"
PERFORMER "Hasidic New Wave"
INDEX 01 00:00:00
FILE "02 - Transcendence.wav" WAVE
TRACK 02 AUDIO
TITLE "Transcendence"
PERFORMER "Hasidic New Wave"
INDEX 01 00:00:00
FILE "03 - Hebe Bop.wav" WAVE
TRACK 03 AUDIO
TITLE "Hebe Bop"
PERFORMER "Hasidic New Wave"
INDEX 01 00:00:00
FILE "04 - Blues in exile.wav" WAVE
TRACK 04 AUDIO
TITLE "Blues in exile"
PERFORMER "Hasidic New Wave"
INDEX 01 00:00:00
FILE "05 - Satmer Hakofos Nign.wav" WAVE
TRACK 05 AUDIO
TITLE "Satmer Hakofos Nign"
PERFORMER "Hasidic New Wave"
INDEX 01 00:00:00
FILE "06 - A.K.S..wav" WAVE
TRACK 06 AUDIO
TITLE "A.K.S."
PERFORMER "Hasidic New Wave"
INDEX 01 00:00:00
FILE "07 - V'Smakhta.wav" WAVE
TRACK 07 AUDIO
TITLE "V'Smakhta"
PERFORMER "Hasidic New Wave"
INDEX 01 00:00:00
 
Лог проверки качества
-----------------------
DON'T MODIFY THIS FILE
-----------------------
PERFORMER: auCDtect Task Manager, ver. 1.6.0 RC1 build 1.6.0.1
Copyright (c) 2008-2010 y-soft. All rights reserved
http://y-soft.org
ANALYZER: auCDtect: CD records authenticity detector, version 0.8.2
Copyright (c) 2004 Oleg Berngardt. All rights reserved.
Copyright (c) 2004 Alexander Djourik. All rights reserved.
FILE: 07 - V'Smakhta.flac
Size: 20288453 Hash: 13BBEFE65703BA5BF15E12B8A1FAA41C Accuracy: -m0
Conclusion: CDDA 100%
Signature: 0AFBEC6F7D63B41AF2CDBE184B1C49D7935E1078
FILE: 06 - A.K.S..flac
Size: 46738093 Hash: C04CAA9D758549EE10ED516776716E76 Accuracy: -m0
Conclusion: CDDA 100%
Signature: 5C82672C76776AC8E40BF4EBC1041598A07A3A3F
FILE: 05 - Satmer Hakofos Nign.flac
Size: 87947788 Hash: 19CF68563DEF31B27D4C6CD6B75D4267 Accuracy: -m0
Conclusion: CDDA 100%
Signature: 4FB545253745140330349A5626A9E2BDD3885782
FILE: 04 - Blues in exile.flac
Size: 58461983 Hash: D5CBDC3F130D1AD9BA749A3CBA823D9B Accuracy: -m0
Conclusion: CDDA 100%
Signature: AC5F631146889E91D46D5F105E94A5F4C01020F1
FILE: 03 - Hebe Bop.flac
Size: 63016060 Hash: 457C7D3EFCADDD26E87AEE6A2622F975 Accuracy: -m0
Conclusion: CDDA 100%
Signature: 9E4118A7C541C4578622F9D41CCD5FCC436E85F3
FILE: 02 - Transcendence.flac
Size: 29890989 Hash: FF6E80EF9B7D479A905772563274CE4F Accuracy: -m0
Conclusion: CDDA 94%
Signature: 688E27FFE97BA2EB7CA52AE4C51B0F2D58C8D56B
FILE: 01 - Al-Osfour Al-Majnoun.flac
Size: 61495694 Hash: 6A5E8CEE287F399084EBF57AA1CEB42D Accuracy: -m0
Conclusion: CDDA 100%
Signature: 09259B3C35633B327BC1E97C1CAB5CD108364CBB
 
Лог CUETools
[CUETools log; Date: 12/11/2017 8:39:43 PM; Version: 2.1.5]
[CTDB TOCID: L4gCLQoPFZumxIsh9SYDsb95owk-] found.
Track | CTDB Status
1 | (2/2) Accurately ripped
2 | (2/2) Accurately ripped
3 | (2/2) Accurately ripped
4 | (2/2) Accurately ripped
5 | (2/2) Accurately ripped
6 | (2/2) Accurately ripped
7 | (2/2) Accurately ripped
[AccurateRip ID: 000fdf22-005f2106-640cb107] found.
Track [ CRC | V2 ] Status
01 [9139f0a5|0cd530ba] (0+2/2) Accurately ripped
02 [cf2e7595|5ccbb564] (0+2/2) Accurately ripped
03 [e5129717|eda2a369] (0+2/2) Accurately ripped
04 [aad563b7|da2e5731] (0+2/2) Accurately ripped
05 [bf638a1c|c34f3013] (0+2/2) Accurately ripped
06 [2bc0f1fb|1b257aba] (0+2/2) Accurately ripped
07 [c6cec213|ee43525f] (0+2/2) Accurately ripped
Track Peak [ CRC32 ] [W/O NULL] [ LOG ]
-- 99.8 [AA95B1BC] [4143ECF0]
01 99.8 [B3CCE24F] [B6066F7D] CRC32
02 99.8 [21BA4930] [D68E5A7B] CRC32
03 99.8 [FE6AEEDD] [34B75810] CRC32
04 99.8 [D4D050B9] [884EC674] CRC32
05 99.8 [C6431E87] [01F7FD07] CRC32
06 99.8 [8C5FCD7F] [27415B53] CRC32
07 99.8 [46D962AC] [5D2383E1] CRC32
 
Замер динамического диапазона
foobar2000 1.3.10 / Замер динамического диапазона (DR) 1.1.1
Дата отчёта: 2017-09-17 19:53:10
--------------------------------------------------------------------------------
Анализ: Hasidic New Wave / Live in Cracow
--------------------------------------------------------------------------------
DR Пики RMS Продолжительность трека
--------------------------------------------------------------------------------
DR11 -0.01 дБ -14.13 дБ 8:57 01-Al-Osfour Al-Majnoun
DR12 -0.01 дБ -15.41 дБ 5:49 02-Transcendence
DR11 -0.01 дБ -15.59 дБ 9:36 03-Hebe Bop
DR11 -0.01 дБ -13.86 дБ 8:01 04-Blues in exile
DR10 -0.01 дБ -13.40 дБ 12:34 05-Satmer Hakofos Nign
DR10 -0.01 дБ -12.33 дБ 6:32 06-A.K.S.
DR9 -0.01 дБ -11.47 дБ 2:39 07-V'Smakhta
--------------------------------------------------------------------------------
Количество треков: 7
Реальные значения DR: DR11
Частота: 44100 Гц
Каналов: 2
Разрядность: 16
Битрейт: 1018 кбит/с
Кодек: FLAC
================================================================================

 
Back
 
Диск
 
Состав
Bass – Fima Ephron
Drums – Aaron Alexander
Guitar – David Fiuczynski
Producer – Marek Winiarski
Saxophone – Greg Wall
Trumpet – Frank London
 
1998 Psycho✡Semitic (56:23)
Год издания оригинала: 1998
Страна - производитель диска: US
Издатель (лейбл): Knitting Factory
Номер по каталогу: KFR-203
Тип: Album
Трэклист:
1 Seven Blessings From The High Priest: Achas 0:30
2 Aks 5:21
3 Seven Blessings From The High Priest: Achas Ve-Achas 0:26
4 Hebe Bop 6:47
5 Seven Blessings From The High Priest: Achas U-Shtayim 1:53
6 Transcendence / U'Mipney Khata'eynu 5:53
7 Al-Osfour Al-Majnoun (The Crazy Bird) 8:22
8 Seven Blessings From The High Priest: Achas Ve-Sholosh 1:08
9 Ve-Samakhto Dub 9:05
10 Seven Blessings From The High Priest: Achas Ve-Arba 1:18
11 Habibi 5:55
12 Seven Blessings From The High Priest: Achas Vo-Sheysh 0:31
13 Blues In Exile 3:49
14 Seven Blessings From The High Priest: Achas Ve-Khamesh 0:32
15 Men Trinkt Mashke (People Drink Whiskey) 4:28
 
Лог создания рипа
EAC extraction logfile from 19. May 2007, 21:01 for CD
Hasidic New Wave / [1998] Psycho Semitic
Used drive : Memorex DVD+/-RW True8XI Adapter: 1 ID: 0
Read mode : Secure with C2, accurate stream, disable cache
Read offset correction : 12
Overread into Lead-In and Lead-Out : No
Used output format : Internal WAV Routines
44.100 Hz; 16 Bit; Stereo
Other options :
Fill up missing offset samples with silence : Yes
Delete leading and trailing silent blocks : No
Installed external ASPI interface
Track 1
Filename C:\Uploading\Demonoid\Hasidic New Wave\[1998] Psycho Semitic\01 - Seven Blessings from the High Priest- Achas.wav
Pre-gap length 0:00:02.00
Peak level 78.2 %
Track quality 100.0 %
Copy CRC 729A1B10
Copy OK
Track 2
Filename C:\Uploading\Demonoid\Hasidic New Wave\[1998] Psycho Semitic\02 - AKS.wav
Peak level 94.3 %
Track quality 100.0 %
Copy CRC AF6A81AB
Copy OK
Track 3
Filename C:\Uploading\Demonoid\Hasidic New Wave\[1998] Psycho Semitic\03 - Seven Blessings from the High Priest- Achas ve-achas.wav
Peak level 24.7 %
Track quality 100.0 %
Copy CRC CA091668
Copy OK
Track 4
Filename C:\Uploading\Demonoid\Hasidic New Wave\[1998] Psycho Semitic\04 - Hebe Bop-(Traditional Hasidic).wav
Peak level 97.2 %
Track quality 100.0 %
Copy CRC 717484EB
Copy OK
Track 5
Filename C:\Uploading\Demonoid\Hasidic New Wave\[1998] Psycho Semitic\05 - Seven Blessings from the High Priest- Achas-u-shtayim.wav
Peak level 29.0 %
Track quality 100.0 %
Copy CRC 99C33686
Copy OK
Track 6
Filename C:\Uploading\Demonoid\Hasidic New Wave\[1998] Psycho Semitic\06 - Transcendence , U'Mipney Khata'eynu-(Traditional).wav
Peak level 93.2 %
Track quality 100.0 %
Copy CRC F5780B7C
Copy OK
Track 7
Filename C:\Uploading\Demonoid\Hasidic New Wave\[1998] Psycho Semitic\07 - Al-Osfour Al-Majnoun (The crazy bird).wav
Pre-gap length 0:00:00.01
Peak level 62.9 %
Track quality 100.0 %
Copy CRC F01096AA
Copy OK
Track 8
Filename C:\Uploading\Demonoid\Hasidic New Wave\[1998] Psycho Semitic\08 - Seven Blessings from the High Priest- Achas ve-sholosh.wav
Peak level 23.3 %
Track quality 99.6 %
Copy CRC 0EB14FA8
Copy OK
Track 9
Filename C:\Uploading\Demonoid\Hasidic New Wave\[1998] Psycho Semitic\09 - Ve-Samakhto Dub-Traditional Hasidic.wav
Peak level 75.9 %
Track quality 100.0 %
Copy CRC F596592D
Copy OK
Track 10
Filename C:\Uploading\Demonoid\Hasidic New Wave\[1998] Psycho Semitic\10 - Seven Blessings from the High Priest- Achas-ve-arba.wav
Peak level 21.4 %
Track quality 100.0 %
Copy CRC FB6CA90E
Copy OK
Track 11
Filename C:\Uploading\Demonoid\Hasidic New Wave\[1998] Psycho Semitic\11 - Habibi.wav
Peak level 98.8 %
Track quality 100.0 %
Copy CRC C6498FF7
Copy OK
Track 12
Filename C:\Uploading\Demonoid\Hasidic New Wave\[1998] Psycho Semitic\12 - Seven Blessings from the High Priest- Achas va sheysh.wav
Peak level 46.3 %
Track quality 100.0 %
Copy CRC 2F8CF40C
Copy OK
Track 13
Filename C:\Uploading\Demonoid\Hasidic New Wave\[1998] Psycho Semitic\13 - Blues in Exile.wav
Peak level 65.7 %
Track quality 99.9 %
Copy CRC CEC24C38
Copy OK
Track 14
Filename C:\Uploading\Demonoid\Hasidic New Wave\[1998] Psycho Semitic\14 - Seven Blessings from the High Priest- Achas-vo-sheysh.wav
Peak level 23.0 %
Track quality 99.3 %
Copy CRC 63F5F257
Copy OK
Track 15
Filename C:\Uploading\Demonoid\Hasidic New Wave\[1998] Psycho Semitic\15 - Men Trinkt Mashke (People Drink Whiskey) (Traditional Hasidic).wav
Peak level 64.3 %
Track quality 100.0 %
Copy CRC DCCA62B3
Copy OK
No errors occured
End of status report
 
Содержание индексной карты (.CUE):
REM GENRE Jazz
REM DATE 1998
REM DISCID EC0D370F
REM COMMENT "ExactAudioCopy v0.95b3"
CATALOG 1501041564005
PERFORMER "Hasidic New Wave"
TITLE "[1998] Psycho Semitic"
FILE "01 - Seven Blessings from the High Priest- Achas.wav" WAVE
TRACK 01 AUDIO
TITLE "Seven Blessings from the High Priest: Achas"
PERFORMER "Hasidic New Wave"
INDEX 01 00:00:00
FILE "02 - AKS.wav" WAVE
TRACK 02 AUDIO
TITLE "AKS"
PERFORMER "Hasidic New Wave"
INDEX 01 00:00:00
FILE "03 - Seven Blessings from the High Priest- Achas ve-achas.wav" WAVE
TRACK 03 AUDIO
TITLE "Seven Blessings from the High Priest: Achas ve-achas"
PERFORMER "Hasidic New Wave"
INDEX 01 00:00:00
FILE "04 - Hebe Bop-(Traditional Hasidic).wav" WAVE
TRACK 04 AUDIO
TITLE "Hebe Bop-(Traditional Hasidic)"
PERFORMER "Hasidic New Wave"
INDEX 01 00:00:00
FILE "05 - Seven Blessings from the High Priest- Achas-u-shtayim.wav" WAVE
TRACK 05 AUDIO
TITLE "Seven Blessings from the High Priest: Achas-u-shtayim"
PERFORMER "Hasidic New Wave"
INDEX 01 00:00:00
FILE "06 - Transcendence , U'Mipney Khata'eynu-(Traditional).wav" WAVE
TRACK 06 AUDIO
TITLE "Transcendence / U'Mipney Khata'eynu-(Traditional)"
PERFORMER "Hasidic New Wave"
INDEX 01 00:00:00
TRACK 07 AUDIO
TITLE "Al-Osfour Al-Majnoun (The crazy bird)"
PERFORMER "Hasidic New Wave"
INDEX 00 05:55:62
FILE "07 - Al-Osfour Al-Majnoun (The crazy bird).wav" WAVE
INDEX 01 00:00:00
FILE "08 - Seven Blessings from the High Priest- Achas ve-sholosh.wav" WAVE
TRACK 08 AUDIO
TITLE "Seven Blessings from the High Priest: Achas ve-sholosh"
PERFORMER "Hasidic New Wave"
INDEX 01 00:00:00
FILE "09 - Ve-Samakhto Dub-Traditional Hasidic.wav" WAVE
TRACK 09 AUDIO
TITLE "Ve-Samakhto Dub-Traditional Hasidic"
PERFORMER "Hasidic New Wave"
INDEX 01 00:00:00
FILE "10 - Seven Blessings from the High Priest- Achas-ve-arba.wav" WAVE
TRACK 10 AUDIO
TITLE "Seven Blessings from the High Priest: Achas-ve-arba"
PERFORMER "Hasidic New Wave"
INDEX 01 00:00:00
FILE "11 - Habibi.wav" WAVE
TRACK 11 AUDIO
TITLE "Habibi "
PERFORMER "Hasidic New Wave"
INDEX 01 00:00:00
FILE "12 - Seven Blessings from the High Priest- Achas va sheysh.wav" WAVE
TRACK 12 AUDIO
TITLE "Seven Blessings from the High Priest: Achas va sheysh"
PERFORMER "Hasidic New Wave"
INDEX 01 00:00:00
FILE "13 - Blues in Exile.wav" WAVE
TRACK 13 AUDIO
TITLE "Blues in Exile"
PERFORMER "Hasidic New Wave"
INDEX 01 00:00:00
FILE "14 - Seven Blessings from the High Priest- Achas-vo-sheysh.wav" WAVE
TRACK 14 AUDIO
TITLE "Seven Blessings from the High Priest: Achas-vo-sheysh"
PERFORMER "Hasidic New Wave"
INDEX 01 00:00:00
FILE "15 - Men Trinkt Mashke (People Drink Whiskey) (Traditional Hasidic).wav" WAVE
TRACK 15 AUDIO
TITLE "Men Trinkt Mashke (People Drink Whiskey) (Traditional Hasidic)"
PERFORMER "Hasidic New Wave"
INDEX 01 00:00:00
 
Лог проверки качества
3904704130 5520188 01 - Seven Blessings from the High Priest- Achas.wav
1063277738 56518604 02 - AKS.wav
852810737 4739324 03 - Seven Blessings from the High Priest- Achas ve-achas.wav
3267449681 72053564 04 - Hebe Bop-(Traditional Hasidic).wav
767907688 19533404 05 - Seven Blessings from the High Priest- Achas-u-shtayim.wav
4221898599 62770220 06 - Transcendence , U'Mipney Khata'eynu-(Traditional).wav
3888467234 88463468 07 - Al-Osfour Al-Majnoun (The crazy bird).wav
854243506 11861180 08 - Seven Blessings from the High Priest- Achas ve-sholosh.wav
2057963662 99466124 09 - Ve-Samakhto Dub-Traditional Hasidic.wav
3814285795 14069708 10 - Seven Blessings from the High Priest- Achas-ve-arba.wav
827688246 62880764 11 - Habibi.wav
96608155 5649548 12 - Seven Blessings from the High Priest- Achas va sheysh.wav
1609331894 40703756 13 - Blues in Exile.wav
2482949003 5449628 14 - Seven Blessings from the High Priest- Achas-vo-sheysh.wav
3413474807 47239964 15 - Men Trinkt Mashke (People Drink Whiskey) (Traditional Hasidic).wav
auCDtect: CD records authenticity detector, version 0.8.2
Copyright (c) 2004 Oleg Berngardt. All rights reserved.
Copyright (c) 2004 Alexander Djourik. All rights reserved.
------------------------------------------------------------
Processing file: [01 - Seven Blessings from the High Priest- Achas.wav]
------------------------------------------------------------
This track looks like CDDA with probability 100%
------------------------------------------------------------
Processing file: [02 - AKS.wav]
------------------------------------------------------------
This track looks like CDDA with probability 100%
------------------------------------------------------------
Processing file: [03 - Seven Blessings from the High Priest- Achas ve-achas.wav]
------------------------------------------------------------
This track looks like CDDA with probability 100%
------------------------------------------------------------
Processing file: [04 - Hebe Bop-(Traditional Hasidic).wav]
------------------------------------------------------------
This track looks like CDDA with probability 100%
------------------------------------------------------------
Processing file: [05 - Seven Blessings from the High Priest- Achas-u-shtayim.wav]
------------------------------------------------------------
This track looks like CDDA with probability 100%
------------------------------------------------------------
Processing file: [06 - Transcendence , U'Mipney Khata'eynu-(Traditional).wav]
------------------------------------------------------------
This track looks like CDDA with probability 100%
------------------------------------------------------------
Processing file: [07 - Al-Osfour Al-Majnoun (The crazy bird).wav]
------------------------------------------------------------
This track looks like CDDA with probability 100%
------------------------------------------------------------
Processing file: [08 - Seven Blessings from the High Priest- Achas ve-sholosh.wav]
------------------------------------------------------------
This track looks like CDDA with probability 99%
------------------------------------------------------------
Processing file: [09 - Ve-Samakhto Dub-Traditional Hasidic.wav]
------------------------------------------------------------
This track looks like CDDA with probability 100%
------------------------------------------------------------
Processing file: [10 - Seven Blessings from the High Priest- Achas-ve-arba.wav]
------------------------------------------------------------
This track looks like CDDA with probability 100%
------------------------------------------------------------
Processing file: [11 - Habibi.wav]
------------------------------------------------------------
This track looks like CDDA with probability 100%
------------------------------------------------------------
Processing file: [12 - Seven Blessings from the High Priest- Achas va sheysh.wav]
------------------------------------------------------------
This track looks like CDDA with probability 100%
------------------------------------------------------------
Processing file: [13 - Blues in Exile.wav]
------------------------------------------------------------
This track looks like CDDA with probability 100%
------------------------------------------------------------
Processing file: [14 - Seven Blessings from the High Priest- Achas-vo-sheysh.wav]
------------------------------------------------------------
This track looks like CDDA with probability 100%
------------------------------------------------------------
Processing file: [15 - Men Trinkt Mashke (People Drink Whiskey) (Traditional Hasidic).wav]
------------------------------------------------------------
This track looks like CDDA with probability 100%
------------------------------------------------------------
Final Conclusion:
------------------------------------------------------------
These tracks looks like CDDA with probability 100%
 
Лог CUETools
[CUETools log; Date: 2/27/2018 7:31:47 AM; Version: 2.1.5]
[CTDB TOCID: h5QUYdUZDeXDl1uZyLh8VlSjkQU-] found.
Track | CTDB Status
1 | (8/8) Accurately ripped
2 | (8/8) Accurately ripped
3 | (8/8) Accurately ripped
4 | (8/8) Accurately ripped
5 | (7/8) Accurately ripped
6 | (6/8) Accurately ripped
7 | (7/8) Accurately ripped
8 | (7/8) Accurately ripped
9 | (6/8) Accurately ripped
10 | (6/8) Accurately ripped
11 | (6/8) Accurately ripped
12 | (7/8) Accurately ripped
13 | (7/8) Accurately ripped
14 | (8/8) Accurately ripped
15 | (6/8) Accurately ripped
[AccurateRip ID: 001f58e1-016b0518-ec0d370f] found.
Track [ CRC | V2 ] Status
01 [f833627c|c4f7640d] (6+3/9) Accurately ripped
02 [06cb744b|2aa47dd2] (6+3/9) Accurately ripped
03 [1ec15cb2|fe55f6d4] (6+3/9) Accurately ripped
04 [ef515d95|bf01b603] (6+3/9) Accurately ripped
05 [6ee47267|6e624a3f] (6+3/9) Accurately ripped
06 [3ad70d78|efc21dcf] (6+2/8) Accurately ripped
07 [21031d07|3ba4bc58] (5+3/8) Accurately ripped
08 [ef4a3824|819a90b4] (6+3/9) Accurately ripped
09 [5a824663|ba335876] (6+3/9) Accurately ripped
10 [dce2ba8f|ca5fceb7] (6+3/9) Accurately ripped
11 [f6c26fd1|91096225] (6+3/9) Accurately ripped
12 [805191da|3bc62f65] (6+3/9) Accurately ripped
13 [fc15f5f5|b8a17e9f] (6+3/9) Accurately ripped
14 [486b719b|6c5d635f] (6+3/9) Accurately ripped
15 [1490206e|f747d73f] (6+3/9) Accurately ripped
Track Peak [ CRC32 ] [W/O NULL] [ LOG ]
-- 98.8 [B347F188] [A237EDF6]
01 78.2 [FA8021A2] [729A1B10] W/O NULL
02 94.3 [78DD4C59] [AF6A81AB] W/O NULL
03 24.7 [84B33F62] [CA091668] W/O NULL
04 97.2 [7A0CC11D] [717484EB] W/O NULL
05 29.0 [5A1E0830] [99C33686] W/O NULL
06 93.2 [8E57D907] [F5780B7C] W/O NULL
07 62.9 [B981E258] [F01096AA] W/O NULL
08 23.2 [EACA88BE] [0EB14FA8] W/O NULL
09 75.9 [CE423A0D] [F596592D] W/O NULL
10 21.4 [8CDD21F3] [FB6CA90E] W/O NULL
11 98.8 [FDEBD64A] [C6498FF7] W/O NULL
12 46.3 [3137A2DA] [2F8CF40C] W/O NULL
13 65.7 [7830F873] [CEC24C38] W/O NULL
14 23.0 [A8B275A3] [63F5F257] W/O NULL
15 64.3 [3096CAC8] [DCCA62B3] W/O NULL
 
Замер динамического диапазона
foobar2000 1.3.10 / Замер динамического диапазона (DR) 1.1.1
Дата отчёта: 2018-03-09 15:34:13
--------------------------------------------------------------------------------
Анализ: Hasidic New Wave / Psycho-Semitic
--------------------------------------------------------------------------------
DR Пики RMS Продолжительность трека
--------------------------------------------------------------------------------
DR18 -2.13 дБ -27.15 дБ 0:31 01-Seven Blessings from the High Priest- Achas
DR11 -0.51 дБ -14.38 дБ 5:20 02-AKS
DR13 -12.14 дБ -30.16 дБ 0:27 03-Seven Blessings from the High Priest- Achas ve-achas
DR12 -0.24 дБ -15.13 дБ 6:48 04-Hebe Bop-(Traditional Hasidic)
DR14 -10.75 дБ -32.27 дБ 1:51 05-Seven Blessings from the High Priest- Achas-u-shtayim
DR12 -0.61 дБ -15.52 дБ 5:56 06-Transcendence , U'Mipney Khata'eynu-(Traditional)
DR14 -4.02 дБ -22.00 дБ 8:21 07-Al-Osfour Al-Majnoun (The crazy bird)
DR17 -12.65 дБ -35.44 дБ 1:07 08-Seven Blessings from the High Priest- Achas ve-sholosh
DR12 -2.39 дБ -18.22 дБ 9:24 09-Ve-Samakhto Dub-Traditional Hasidic
DR10 -13.38 дБ -30.09 дБ 1:20 10-Seven Blessings from the High Priest- Achas-ve-arba
DR10 -0.10 дБ -16.01 дБ 5:56 11-Habibi
DR16 -6.68 дБ -26.99 дБ 0:32 12-Seven Blessings from the High Priest- Achas va sheysh
DR11 -3.64 дБ -15.39 дБ 3:51 13-Blues in Exile
DR15 -12.75 дБ -33.61 дБ 0:31 14-Seven Blessings from the High Priest- Achas-vo-sheysh
DR9 -3.83 дБ -16.40 дБ 4:28 15-Men Trinkt Mashke (People Drink Whiskey) (Traditional Hasidic)
--------------------------------------------------------------------------------
Количество треков: 15
Реальные значения DR: DR13
Частота: 44100 Гц
Каналов: 2
Разрядность: 16
Битрейт: 750 кбит/с
Кодек: FLAC
================================================================================

 
Состав
Bass – Fima Ephron
Drums – Aaron Alexander
Guitar – David Fiuczynski
Saxophone, Producer – Greg Wall
Trumpet, Producer – Frank London
 
1999 Guiliani Uber Alles (promo remixes) (16:52)
Год издания оригинала: 1999
Страна - производитель диска: US
Издатель (лейбл): Knitting Factory Records
Номер по каталогу: none
Тип: CD, Maxi-Single, Promo, Cardboard Sleeve
Трэклист:
1. Hasidic New Wave - Giuliani Über Alles (Ultra Horn Ska Mix)
2. Hasidic New Wave - Giuliani Über Alles (P.G. Mix)
3. God Is My Co-Pilot - Giuliani Über Alles (Complicity Mix)
4. Hasidic New Wave - Giuliani Über Alles (Plunger Mix)
5. Hasidic New Wave - Giuliani Über Alles (Another Mix)
 
Лог создания рипа
EAC extraction logfile from 19. May 2007, 20:10 for CD
Hasidic New Wave / [1998] Guiliani Uber Alles
Used drive : Memorex DVD+/-RW True8XI Adapter: 1 ID: 0
Read mode : Secure with C2, accurate stream, disable cache
Read offset correction : 12
Overread into Lead-In and Lead-Out : No
Used output format : Internal WAV Routines
44.100 Hz; 16 Bit; Stereo
Other options :
Fill up missing offset samples with silence : Yes
Delete leading and trailing silent blocks : No
Installed external ASPI interface
Track 5
Filename C:\Uploading\Demonoid\Hasidic New Wave\[1998] Guiliani Uber Alles (promo remixes)\05 - Hasidic New Wave , Master Mix.wav
Missing samples
Peak level 0.0 %
Track quality 100.0 %
Copy finished
There were errors
End of status report
------------------------------------------------------------
EAC extraction logfile from 19. May 2007, 20:24 for CD
Hasidic New Wave / [1998] Guiliani Uber Alles
Used drive : Memorex DVD+/-RW True8XI Adapter: 1 ID: 0
Read mode : Secure with C2, accurate stream, disable cache
Read offset correction : 12
Overread into Lead-In and Lead-Out : No
Used output format : Internal WAV Routines
44.100 Hz; 16 Bit; Stereo
Other options :
Fill up missing offset samples with silence : Yes
Delete leading and trailing silent blocks : No
Installed external ASPI interface
Track 1
Filename C:\Uploading\Demonoid\Hasidic New Wave\[1998] Guiliani Uber Alles (promo remixes)\01 - Hasidic New Wave , PG Mix.wav
Pre-gap length 0:00:02.00
Peak level 79.6 %
Track quality 100.0 %
Copy CRC 3835AB8A
Copy OK
Track 2
Filename C:\Uploading\Demonoid\Hasidic New Wave\[1998] Guiliani Uber Alles (promo remixes)\02 - Hasidic New Wave & Vinny Mobile , Ultra-Horn Sax Mix.wav
Peak level 73.5 %
Track quality 99.8 %
Copy CRC 01077379
Copy OK
Track 3
Filename C:\Uploading\Demonoid\Hasidic New Wave\[1998] Guiliani Uber Alles (promo remixes)\03 - God Is My Co-Pilot , Complicity Mix.wav
Peak level 100.0 %
Track quality 100.0 %
Copy CRC 48D94626
Copy OK
Track 4
Filename C:\Uploading\Demonoid\Hasidic New Wave\[1998] Guiliani Uber Alles (promo remixes)\04 - God-Co Horns , Plunger Mix.wav
Peak level 100.0 %
Track quality 100.0 %
Copy CRC 471E83B5
Copy OK
Track 5
Filename C:\Uploading\Demonoid\Hasidic New Wave\[1998] Guiliani Uber Alles (promo remixes)\05 - Hasidic New Wave , Master Mix.wav
Peak level 100.0 %
Track quality 100.0 %
Copy CRC A463193F
Copy OK
No errors occured
End of status report
 
Содержание индексной карты (.CUE):
REM GENRE Jazz
REM DATE 1998
REM DISCID 4103F405
REM COMMENT "ExactAudioCopy v0.95b3"
CATALOG 0501001567001
PERFORMER "Hasidic New Wave"
TITLE "[1998] Guiliani Uber Alles"
FILE "01 - Hasidic New Wave , PG Mix.wav" WAVE
TRACK 01 AUDIO
TITLE "Hasidic New Wave / PG Mix"
PERFORMER "Hasidic New Wave"
INDEX 01 00:00:00
FILE "02 - Hasidic New Wave & Vinny Mobile , Ultra-Horn Sax Mix.wav" WAVE
TRACK 02 AUDIO
TITLE "Hasidic New Wave & Vinny Mobile / Ultra-Horn Sax Mix"
PERFORMER "Hasidic New Wave"
INDEX 01 00:00:00
FILE "03 - God Is My Co-Pilot , Complicity Mix.wav" WAVE
TRACK 03 AUDIO
TITLE "God Is My Co-Pilot / Complicity Mix"
PERFORMER "Hasidic New Wave"
INDEX 01 00:00:00
FILE "04 - God-Co Horns , Plunger Mix.wav" WAVE
TRACK 04 AUDIO
TITLE "God-Co Horns / Plunger Mix"
PERFORMER "Hasidic New Wave"
INDEX 01 00:00:00
FILE "05 - Hasidic New Wave , Master Mix.wav" WAVE
TRACK 05 AUDIO
TITLE "Hasidic New Wave / Master Mix"
PERFORMER "Hasidic New Wave"
INDEX 01 00:00:00
 
Лог проверки качества
1104069015 30333788 01 - Hasidic New Wave , PG Mix.wav
510770327 30862988 02 - Hasidic New Wave & Vinny Mobile , Ultra-Horn Sax Mix.wav
1499343212 56154044 03 - God Is My Co-Pilot , Complicity Mix.wav
228649408 30100940 04 - God-Co Horns , Plunger Mix.wav
2633345194 31133468 05 - Hasidic New Wave , Master Mix.wav
auCDtect: CD records authenticity detector, version 0.8.2
Copyright (c) 2004 Oleg Berngardt. All rights reserved.
Copyright (c) 2004 Alexander Djourik. All rights reserved.
------------------------------------------------------------
Processing file: [01 - Hasidic New Wave , PG Mix.wav]
------------------------------------------------------------
This track looks like CDDA with probability 100%
------------------------------------------------------------
Processing file: [02 - Hasidic New Wave & Vinny Mobile , Ultra-Horn Sax Mix.wav]
------------------------------------------------------------
This track looks like CDDA with probability 99%
------------------------------------------------------------
Processing file: [03 - God Is My Co-Pilot , Complicity Mix.wav]
------------------------------------------------------------
This track looks like CDDA with probability 100%
------------------------------------------------------------
Processing file: [04 - God-Co Horns , Plunger Mix.wav]
------------------------------------------------------------
This track looks like CDDA with probability 100%
------------------------------------------------------------
Processing file: [05 - Hasidic New Wave , Master Mix.wav]
------------------------------------------------------------
This track looks like CDDA with probability 100%
------------------------------------------------------------
Final Conclusion:
------------------------------------------------------------
These tracks looks like CDDA with probability 100%
 
Лог CUETools
[CUETools log; Date: 2/27/2018 7:31:50 AM; Version: 2.1.5]
[CTDB TOCID: ktbg4.iSKUspcUjMDfu8zHFhOus-] disk not present in database.
[AccurateRip ID: 00037867-00105d4e-4103f405] disk not present in database.
Track Peak [ CRC32 ] [W/O NULL] [ LOG ]
-- 100.0 [629EE697] [BD58E1C8]
01 79.5 [E5645C84] [3835AB8A] W/O NULL
02 73.5 [E6E93F59] [01077379] W/O NULL
03 100.0 [361863A2] [48D94626] W/O NULL
04 100.0 [07C4774C] [471E83B5] W/O NULL
05 100.0 [0E2BA8B2] [A463193F] W/O NULL
 
Замер динамического диапазона
foobar2000 1.3.10 / Замер динамического диапазона (DR) 1.1.1
Дата отчёта: 2018-03-09 16:25:31
--------------------------------------------------------------------------------
Анализ: Hasidic New Wave / Kabalogy
--------------------------------------------------------------------------------
DR Пики RMS Продолжительность трека
--------------------------------------------------------------------------------
DR12 -1.98 дБ -16.54 дБ 2:52 01-Hasidic New Wave , PG Mix
DR13 -2.67 дБ -17.93 дБ 2:55 02-Hasidic New Wave & Vinny Mobile , Ultra-Horn Sax Mix
DR8 0.00 дБ -12.19 дБ 5:18 03-God Is My Co-Pilot , Complicity Mix
DR11 0.00 дБ -12.99 дБ 2:51 04-God-Co Horns , Plunger Mix
DR14 0.00 дБ -15.19 дБ 2:56 05-Hasidic New Wave , Master Mix
--------------------------------------------------------------------------------
Количество треков: 5
Реальные значения DR: DR12
Частота: 44100 Гц
Каналов: 2
Разрядность: 16
Битрейт: 842 кбит/с
Кодек: FLAC
================================================================================

 
Состав
Bass – Fima Ephron
Drums – Aaron Alexander
Guitar – David Fiuczynski
Saxophone – Greg Wall
Trumpet – Frank London
Vinnie Nobile (1)
 
1999 Kabalogy (45:28)
Дата записи:
Год издания оригинала: 1999
Страна - производитель диска:
Издатель (лейбл): Knitting Factory (Series: Jewish Alternative Movement (JAM))
Номер по каталогу: KFR-239
Тип:
Трэклист:
1. Purple Vishnu (Fiuczynski) 8:11
2. Benigni (Ephron) 5:26
3. Kabalogy (Wall) 4:28
4. H.W.N., Pt. 1 (London) 2:07
5. H.W.N., Pt. 2 (London) 2:47
6. OK Dear, Who? (London) 4:27
7. Amy's Solo (Alexander) 6:10
8. The Frank Zappa Memorial Bris (Wall) 1:00
9. Burkan Cocek (Hasidic New Wave ...) 5:36
10. Satmer Hakafos Nign #3 (Hasidic New Wave ...) 2:19
11. Giuliani Uber Alles [Mega Horn Mix] (Biafra, Greenway) 2:52
 
Лог создания рипа
EAC extraction logfile from 19. May 2007, 19:58 for CD
Hasidic New Wave / [1998] Kabalogy
Used drive : Memorex DVD+/-RW True8XI Adapter: 1 ID: 0
Read mode : Secure with C2, accurate stream, disable cache
Read offset correction : 12
Overread into Lead-In and Lead-Out : No
Used output format : Internal WAV Routines
44.100 Hz; 16 Bit; Stereo
Other options :
Fill up missing offset samples with silence : Yes
Delete leading and trailing silent blocks : No
Installed external ASPI interface
Track 1
Filename C:\Uploading\Demonoid\Hasidic New Wave\[1998] Kabalogy\01 - purple vishnu.wav
Pre-gap length 0:00:02.00
Peak level 98.1 %
Track quality 100.0 %
Copy CRC DD3E7D1F
Copy OK
Track 2
Filename C:\Uploading\Demonoid\Hasidic New Wave\[1998] Kabalogy\02 - benigni.wav
Peak level 97.8 %
Track quality 100.0 %
Copy CRC B693B820
Copy OK
Track 3
Filename C:\Uploading\Demonoid\Hasidic New Wave\[1998] Kabalogy\03 - kabalogy.wav
Peak level 87.9 %
Track quality 100.0 %
Copy CRC 030FDEA3
Copy OK
Track 4
Filename C:\Uploading\Demonoid\Hasidic New Wave\[1998] Kabalogy\04 - h.w.n. (pt. 1).wav
Peak level 100.0 %
Track quality 100.0 %
Copy CRC 00721328
Copy OK
Track 5
Filename C:\Uploading\Demonoid\Hasidic New Wave\[1998] Kabalogy\05 - h.w.n. (pt. 2).wav
Peak level 89.8 %
Track quality 100.0 %
Copy CRC 30770816
Copy OK
Track 6
Filename C:\Uploading\Demonoid\Hasidic New Wave\[1998] Kabalogy\06 - ok dear, who .wav
Peak level 97.3 %
Track quality 100.0 %
Copy CRC C6869BCA
Copy OK
Track 7
Filename C:\Uploading\Demonoid\Hasidic New Wave\[1998] Kabalogy\07 - amy's solo.wav
Peak level 93.5 %
Track quality 99.9 %
Copy CRC 6EB46FC1
Copy OK
Track 8
Filename C:\Uploading\Demonoid\Hasidic New Wave\[1998] Kabalogy\08 - the frank zappa memorial bris.wav
Peak level 74.8 %
Track quality 100.0 %
Copy CRC 80A9A22D
Copy OK
Track 9
Filename C:\Uploading\Demonoid\Hasidic New Wave\[1998] Kabalogy\09 - burkan cocek.wav
Peak level 95.8 %
Track quality 100.0 %
Copy CRC 720A9A6C
Copy OK
Track 10
Filename C:\Uploading\Demonoid\Hasidic New Wave\[1998] Kabalogy\10 - satmer hakafos nign no. 3.wav
Peak level 96.9 %
Track quality 100.0 %
Copy CRC 0F1F1099
Copy OK
Track 11
Filename C:\Uploading\Demonoid\Hasidic New Wave\[1998] Kabalogy\11 - giuliani uber alles.wav
Peak level 90.5 %
Track quality 100.0 %
Copy CRC F50413A7
Copy OK
No errors occured
End of status report
 
Содержание индексной карты (.CUE):
REM GENRE Jazz
REM DATE 1998
REM DISCID 8B0AA80B
REM COMMENT "ExactAudioCopy v0.95b3"
PERFORMER "Hasidic New Wave"
TITLE "[1998] Kabalogy"
FILE "01 - purple vishnu.wav" WAVE
TRACK 01 AUDIO
TITLE "purple vishnu"
PERFORMER "Hasidic New Wave"
F
03:17
332
Нет комментариев. Ваш будет первым!