Вы используете незарегистрированную версию компонента "Вкладки"!

Поиск

(Avant-Garde, Contemporary Jazz, ACT Music) Richie Beirach, Gregor Huebner, George Mraz - Round About Federico Mompou - 2001, FLAC (tracks+.cue), lossless

(Avant-Garde, Contemporary Jazz, ACT Music) Richie Beirach, Gregor Huebner, George Mraz - Round About Federico Mompou - 2001, FLAC (tracks+.cue), lossless
Издатель (лейбл):
Треклист:
Beirach…Huebner…Mraz / Round About Federico Mompou
Жанр: Avant-Garde, Contemporary Jazz, ACT Music
Страна-производитель диска: Germany
Год издания: 2001
Издатель (лейбл): ACT Music
Номер по каталогу: ACT 9296-2
Аудиокодек: FLAC (*.flac)
Тип рипа: tracks+.cue
Битрейт аудио: lossless
Продолжительность: 1:03:22
Источник (релизер): Max Monteiro
Наличие сканов в содержимом раздачи: нет
Треклист:
01. Impressiones Intimas #1 (4:34)
02. Musica Callada #6 (8:09)
03. Fantasie on Musica Callada #10 (Mraz / Huebner) (2:13)
04. Musica Callada #10 (6:37)
05. Bass Fantasie on Musica Callada #1 (Mraz) (2:58)
06. Musica Callada #1 (3:55)
07. Musica Callada #27 (1:49)
08. Around Musica Callada #27 (Beirach / Huebner) (4:38)
09. Fantasie on Musica Callada #19 (Beirach / Huebner) (3:14)
10. Around Musica Callada #19 (Beirach / Huebner) (1:01)
11. Musica Callada #19 (3:43)
12. Musica Callada #18 (7:42)
13. Fantasie on Musica Callada #18 (Beirach / Huebner) (1:58)
14. Musica Callada #15 (2:32)
15. Musica Callada #22 (8:20)
All compositions by Federico Mompou except where indicated.
Recorded at Bauer Studios Ludwigsburg, Germany in May 2001.
Richie Beirach – Piano
Gregor Huebner – Violin
George Mraz – Bass
 
Лог создания рипа
Exact Audio Copy V1.0 beta 3 from 29. August 2011
EAC extraction logfile from 15. September 2013, 11:29
Beirach...Huebner...Mraz / Round About Federico Mompou
Used drive : SlimtypeeNAU508 5 Adapter: 1 ID: 0
Read mode : Secure
Utilize accurate stream : Yes
Defeat audio cache : Yes
Make use of C2 pointers : No
Read offset correction : 6
Overread into Lead-In and Lead-Out : No
Fill up missing offset samples with silence : Yes
Delete leading and trailing silent blocks : No
Null samples used in CRC calculations : Yes
Used interface : Native Win32 interface for Win NT & 2000
Gap handling : Appended to previous track
Used output format : User Defined Encoder
Selected bitrate : 768 kBit/s
Quality : High
Add ID3 tag : No
Command line compressor : C:\Program Files (x86)\Exact Audio Copy\Flac\flac.exe
Additional command line options : -8 -V -T "ARTIST=%artist%" -T "TITLE=%title%" -T "ALBUM=%albumtitle%" -T "DATE=%year%" -T "TRACKNUMBER=%tracknr%" -T "GENRE=%genre%" -T "PERFORMER=%albuminterpret%" -T "COMPOSER=%composer%" %haslyrics%--tag-from-file=LYRICS="%lyricsfile%"%haslyrics% -T "ALBUMARTIST=%albumartist%" -T "DISCNUMBER=%cdnumber%" -T "TOTALDISCS=%totalcds%" -T "TOTALTRACKS=%numtracks%" -T "COMMENT=%comment%" %source% -o %dest%
TOC of the extracted CD
Track | Start | Length | Start sector | End sector
---------------------------------------------------------
1 | 0:00.00 | 4:33.46 | 0 | 20520
2 | 4:33.46 | 8:09.19 | 20521 | 57214
3 | 12:42.65 | 2:13.03 | 57215 | 67192
4 | 14:55.68 | 6:37.15 | 67193 | 96982
5 | 21:33.08 | 2:57.74 | 96983 | 110331
6 | 24:31.07 | 3:55.08 | 110332 | 127964
7 | 28:26.15 | 1:48.55 | 127965 | 136119
8 | 30:14.70 | 4:37.63 | 136120 | 156957
9 | 34:52.58 | 3:13.50 | 156958 | 171482
10 | 38:06.33 | 1:00.63 | 171483 | 176045
11 | 39:07.21 | 3:42.66 | 176046 | 192761
12 | 42:50.12 | 7:42.16 | 192762 | 227427
13 | 50:32.28 | 1:58.16 | 227428 | 236293
14 | 52:30.44 | 2:31.52 | 236294 | 247670
15 | 55:02.21 | 8:19.45 | 247671 | 285140
Track 1
Filename C:\EAC rips\01 - Impressiones Intimas #1.wav
Pre-gap length 0:00:02.00
Peak level 100.0 %
Extraction speed 1.1 X
Track quality 100.0 %
Test CRC 1538EA80
Copy CRC 1538EA80
Accurately ripped (confidence 5) [CEF86C8E] (AR v2)
Copy OK
Track 2
Filename C:\EAC rips\02 - Musica Callada #6.wav
Pre-gap length 0:00:04.16
Peak level 100.0 %
Extraction speed 1.4 X
Track quality 100.0 %
Test CRC 9A3E867F
Copy CRC 9A3E867F
Accurately ripped (confidence 5) [C7592000] (AR v2)
Copy OK
Track 3
Filename C:\EAC rips\03 - Fantasie on Musica Callada #10.wav
Pre-gap length 0:00:03.24
Peak level 98.9 %
Extraction speed 1.3 X
Track quality 100.0 %
Test CRC AAC822AF
Copy CRC AAC822AF
Accurately ripped (confidence 5) [F724BE87] (AR v2)
Copy OK
Track 4
Filename C:\EAC rips\04 - Musica Callada #10.wav
Peak level 100.0 %
Extraction speed 1.6 X
Track quality 100.0 %
Test CRC C85FCC22
Copy CRC C85FCC22
Accurately ripped (confidence 5) [8DE85D72] (AR v2)
Copy OK
Track 5
Filename C:\EAC rips\05 - Bass Fantasie on Musica Callada #1.wav
Pre-gap length 0:00:03.38
Peak level 97.4 %
Extraction speed 1.5 X
Track quality 100.0 %
Test CRC 791F008F
Copy CRC 791F008F
Accurately ripped (confidence 5) [C68CA7CB] (AR v2)
Copy OK
Track 6
Filename C:\EAC rips\06 - Musica Callada #1.wav
Peak level 100.0 %
Extraction speed 1.7 X
Track quality 100.0 %
Test CRC EACBBE22
Copy CRC EACBBE22
Accurately ripped (confidence 5) [6372E493] (AR v2)
Copy OK
Track 7
Filename C:\EAC rips\07 - Musica Callada #27.wav
Pre-gap length 0:00:02.45
Peak level 100.0 %
Extraction speed 1.5 X
Track quality 100.0 %
Test CRC 8778F56F
Copy CRC 8778F56F
Accurately ripped (confidence 5) [13102548] (AR v2)
Copy OK
Track 8
Filename C:\EAC rips\08 - Around Musica Callada #27.wav
Peak level 100.0 %
Extraction speed 1.9 X
Track quality 100.0 %
Test CRC 18536897
Copy CRC 18536897
Accurately ripped (confidence 5) [F3FFEAF7] (AR v2)
Copy OK
Track 9
Filename C:\EAC rips\09 - Fantasie on Musica Callada #19.wav
Pre-gap length 0:00:01.63
Peak level 99.0 %
Extraction speed 1.8 X
Track quality 100.0 %
Test CRC 9AEEA28C
Copy CRC 9AEEA28C
Accurately ripped (confidence 5) [52B2A9D6] (AR v2)
Copy OK
Track 10
Filename C:\EAC rips\10 - Around Musica Callada #19.wav
Pre-gap length 0:00:01.60
Peak level 100.0 %
Extraction speed 1.3 X
Track quality 100.0 %
Test CRC 0A8762F6
Copy CRC 0A8762F6
Accurately ripped (confidence 5) [0B204D49] (AR v2)
Copy OK
Track 11
Filename C:\EAC rips\11 - Musica Callada #19.wav
Peak level 100.0 %
Extraction speed 1.9 X
Track quality 100.0 %
Test CRC B24B0671
Copy CRC B24B0671
Accurately ripped (confidence 5) [841EBC54] (AR v2)
Copy OK
Track 12
Filename C:\EAC rips\12 - Musica Callada #18.wav
Pre-gap length 0:00:03.02
Peak level 100.0 %
Extraction speed 2.2 X
Track quality 100.0 %
Test CRC E0BA694D
Copy CRC E0BA694D
Accurately ripped (confidence 5) [241AC68E] (AR v2)
Copy OK
Track 13
Filename C:\EAC rips\13 - Fantasie on Musica Callada #18.wav
Peak level 99.8 %
Extraction speed 1.5 X
Track quality 99.9 %
Test CRC AC4630DC
Copy CRC AC4630DC
Accurately ripped (confidence 5) [A4BC5CF2] (AR v2)
Copy OK
Track 14
Filename C:\EAC rips\14 - Musica Callada #15.wav
Pre-gap length 0:00:02.23
Peak level 98.7 %
Extraction speed 1.7 X
Track quality 99.9 %
Test CRC 77E9A6DB
Copy CRC 77E9A6DB
Accurately ripped (confidence 5) [2A93B116] (AR v2)
Copy OK
Track 15
Filename C:\EAC rips\15 - Musica Callada #22.wav
Pre-gap length 0:00:03.13
Peak level 100.0 %
Extraction speed 2.4 X
Track quality 100.0 %
Test CRC 148E3F57
Copy CRC 148E3F57
Accurately ripped (confidence 5) [C60F482C] (AR v2)
Copy OK
All tracks accurately ripped
No errors occurred
End of status report
---- CUETools DB Plugin V2.1.4
[CTDB TOCID: WtqEPyKKrxXXDHpJi5ekr6o8tKg-] disk not present in database
Submit result: WtqEPyKKrxXXDHpJi5ekr6o8tKg- has been uploaded
==== Log checksum B3A8B181A70A6B664CCDE494BEB7131F265D21757669A110A6FF720B722F4E64 ====
 
Содержание индексной карты (.CUE)
REM GENRE Jazz
REM DATE 2001
REM DISCID DD0ED90F
REM COMMENT "ExactAudioCopy v1.0b3"
PERFORMER "Beirach...Huebner...Mraz"
TITLE "Round About Federico Mompou"
FILE "01 - Impressiones Intimas #1.wav" WAVE
TRACK 01 AUDIO
TITLE "Impressiones Intimas #1"
PERFORMER "Beirach...Huebner...Mraz"
ISRC DEA890130320
INDEX 01 00:00:00
TRACK 02 AUDIO
TITLE "Musica Callada #6"
PERFORMER "Beirach...Huebner...Mraz"
ISRC DEA890130321
INDEX 00 04:29:30
FILE "02 - Musica Callada #6.wav" WAVE
INDEX 01 00:00:00
TRACK 03 AUDIO
TITLE "Fantasie on Musica Callada #10"
PERFORMER "Beirach...Huebner...Mraz"
ISRC DEA890130322
INDEX 00 08:05:70
FILE "03 - Fantasie on Musica Callada #10.wav" WAVE
INDEX 01 00:00:00
FILE "04 - Musica Callada #10.wav" WAVE
TRACK 04 AUDIO
TITLE "Musica Callada #10"
PERFORMER "Beirach...Huebner...Mraz"
ISRC DEA890130323
INDEX 01 00:00:00
TRACK 05 AUDIO
TITLE "Bass Fantasie on Musica Callada #1"
PERFORMER "Beirach...Huebner...Mraz"
ISRC DEA890130324
INDEX 00 06:33:52
FILE "05 - Bass Fantasie on Musica Callada #1.wav" WAVE
INDEX 01 00:00:00
FILE "06 - Musica Callada #1.wav" WAVE
TRACK 06 AUDIO
TITLE "Musica Callada #1"
PERFORMER "Beirach...Huebner...Mraz"
ISRC DEA890130325
INDEX 01 00:00:00
TRACK 07 AUDIO
TITLE "Musica Callada #27"
PERFORMER "Beirach...Huebner...Mraz"
ISRC DEA890130326
INDEX 00 03:52:38
FILE "07 - Musica Callada #27.wav" WAVE
INDEX 01 00:00:00
FILE "08 - Around Musica Callada #27.wav" WAVE
TRACK 08 AUDIO
TITLE "Around Musica Callada #27"
PERFORMER "Beirach...Huebner...Mraz"
ISRC DEA890130327
INDEX 01 00:00:00
TRACK 09 AUDIO
TITLE "Fantasie on Musica Callada #19"
PERFORMER "Beirach...Huebner...Mraz"
ISRC DEA890130328
INDEX 00 04:36:00
FILE "09 - Fantasie on Musica Callada #19.wav" WAVE
INDEX 01 00:00:00
TRACK 10 AUDIO
TITLE "Around Musica Callada #19"
PERFORMER "Beirach...Huebner...Mraz"
ISRC DEA890130329
INDEX 00 03:11:65
FILE "10 - Around Musica Callada #19.wav" WAVE
INDEX 01 00:00:00
FILE "11 - Musica Callada #19.wav" WAVE
TRACK 11 AUDIO
TITLE "Musica Callada #19"
PERFORMER "Beirach...Huebner...Mraz"
ISRC DEA890130330
INDEX 01 00:00:00
TRACK 12 AUDIO
TITLE "Musica Callada #18"
PERFORMER "Beirach...Huebner...Mraz"
ISRC DEA890130332
INDEX 00 03:39:64
FILE "12 - Musica Callada #18.wav" WAVE
INDEX 01 00:00:00
FILE "13 - Fantasie on Musica Callada #18.wav" WAVE
TRACK 13 AUDIO
TITLE "Fantasie on Musica Callada #18"
PERFORMER "Beirach...Huebner...Mraz"
ISRC DEA890130331
INDEX 01 00:00:00
TRACK 14 AUDIO
TITLE "Musica Callada #15"
PERFORMER "Beirach...Huebner...Mraz"
ISRC DEA890130333
INDEX 00 01:55:68
FILE "14 - Musica Callada #15.wav" WAVE
INDEX 01 00:00:00
TRACK 15 AUDIO
TITLE "Musica Callada #22"
PERFORMER "Beirach...Huebner...Mraz"
ISRC DEA890130334
INDEX 00 02:28:39
FILE "15 - Musica Callada #22.wav" WAVE
INDEX 01 00:00:00
По всем вопросам пишите личное сообщение пользователю M0p94ok.
18:21
184
Нет комментариев. Ваш будет первым!