Поиск

(Afro-Cuban, Latin Jazz) [CD] Mongo Santamaria And Friends - Mambo Mongo - 1993, FLAC (tracks+.cue), lossless

(Afro-Cuban, Latin Jazz) [CD] Mongo Santamaria And Friends - Mambo Mongo - 1993, FLAC (tracks+.cue), lossless
Mongo Santamaria And Friends - Mambo Mongo Жанр: Afro-Cuban, Latin Jazz
Носитель: CD
Год издания: 1993
Издатель (лейбл): Chesky Records
Номер по каталогу: JD100
Аудиокодек: FLAC (*.flac)
Тип рипа: tracks+.cue
Битрейт аудио: lossless
Продолжительность: 54:46
Rip by alekow
Наличие сканов в содержимом раздачи: да
Треклист:
01. Dark Before The Dawn (5:46)
02. Caribbean Sunrise (4:49)
03. Mambo Mongo (6:56)
04. Los Ninos Del Mundo (6:05)
05. Cali (5:07)
06. Are They Only Dreams (5:02)
07. Cuco Y Olga (6:04)
08. Azteca (5:23)
09. La Mogolla (9:33)
На замену http://rutracker.org/forum/viewtopic.php?t=2623108
 
 
Состав
Andreu Johnny Almendra - Timbales
Craig Rivers - Sax (Alto)
Craig Rivers - Sax (Soprano)
Craig Rivers - Sax (Tenor)
Dario Eskenazi - Piano
Dave Valentin - Flute
Eddie Allen - Trumpet
Eddie Rodirguez - Percussion
Eddie Rodirguez - Vocals
Guillermo Edghill - Bass
Hubert Laws - Flute
James Crozier - Sax (Alto)
Jerome Goldschmidt - Cata
Jerome Goldschmidt - Itotele
Jerome Goldschmidt - Percussion
Jimmy Cozier - Sax (Alto)
Johnny Almendra - Timbales
Mongo Santamaria - Conga
 
 
Лог создания рипа
Exact Audio Copy V1.0 beta 4 from 7. December 2014
EAC extraction logfile from 18. October 2015, 12:54
Mongo Santamaria And Friends / Mambo Mongo
Used drive : TSSTcorpCDDVDW SH-224DB Adapter: 1 ID: 0
Read mode : Secure
Utilize accurate stream : Yes
Defeat audio cache : Yes
Make use of C2 pointers : No
Read offset correction : 6
Overread into Lead-In and Lead-Out : No
Fill up missing offset samples with silence : Yes
Delete leading and trailing silent blocks : No
Null samples used in CRC calculations : Yes
Used interface : Native Win32 interface for Win NT & 2000
Gap handling : Appended to previous track
Used output format : User Defined Encoder
Selected bitrate : 896 kBit/s
Quality : High
Add ID3 tag : No
Command line compressor : C:\Program Files\Exact Audio Copy\Flac\flac.exe
Additional command line options : -6 -V -T "ARTIST=%artist%" -T "TITLE=%title%" -T "ALBUM=%albumtitle%" -T "DATE=%year%" -T "TRACKNUMBER=%tracknr%" -T "GENRE=%genre%" -T "COMMENT=%comment%" %source% -o %dest%
TOC of the extracted CD
Track | Start | Length | Start sector | End sector
---------------------------------------------------------
1 | 0:00.37 | 5:46.28 | 37 | 26014
2 | 5:46.65 | 4:49.00 | 26015 | 47689
3 | 10:35.65 | 6:55.60 | 47690 | 78874
4 | 17:31.50 | 6:05.20 | 78875 | 106269
5 | 23:36.70 | 5:07.12 | 106270 | 129306
6 | 28:44.07 | 5:01.70 | 129307 | 151951
7 | 33:46.02 | 6:03.60 | 151952 | 179236
8 | 39:49.62 | 5:23.18 | 179237 | 203479
9 | 45:13.05 | 9:32.72 | 203480 | 246451
Track 1
Filename C:\New Folder\01 - Dark Before The Dawn.wav
Pre-gap length 0:00:02.37
Peak level 68.7 %
Extraction speed 2.1 X
Track quality 100.0 %
Test CRC 28CD6117
Copy CRC 28CD6117
Accurately ripped (confidence 8) [FBD39BCC] (AR v2)
Copy OK
Track 2
Filename C:\New Folder\02 - Caribbean Sunrise.wav
Pre-gap length 0:00:03.32
Peak level 67.9 %
Extraction speed 2.1 X
Track quality 100.0 %
Test CRC A634B3B8
Copy CRC A634B3B8
Accurately ripped (confidence 8) [022E332D] (AR v2)
Copy OK
Track 3
Filename C:\New Folder\03 - Mambo Mongo.wav
Pre-gap length 0:00:03.60
Peak level 71.8 %
Extraction speed 2.2 X
Track quality 100.0 %
Test CRC F9FFA7EF
Copy CRC F9FFA7EF
Accurately ripped (confidence 8) [6810917D] (AR v2)
Copy OK
Track 4
Filename C:\New Folder\04 - Los Ninos Del Mundo.wav
Pre-gap length 0:00:01.72
Peak level 79.5 %
Extraction speed 2.2 X
Track quality 100.0 %
Test CRC 8A9FDDB7
Copy CRC 8A9FDDB7
Accurately ripped (confidence 8) [B8246C8C] (AR v2)
Copy OK
Track 5
Filename C:\New Folder\05 - Cali.wav
Pre-gap length 0:00:02.60
Peak level 74.6 %
Extraction speed 2.1 X
Track quality 100.0 %
Test CRC 45ED5207
Copy CRC 45ED5207
Accurately ripped (confidence 8) [A73269A6] (AR v2)
Copy OK
Track 6
Filename C:\New Folder\06 - Are They Only Dreams.wav
Pre-gap length 0:00:03.02
Peak level 69.9 %
Extraction speed 2.1 X
Track quality 100.0 %
Test CRC 67375A39
Copy CRC 67375A39
Accurately ripped (confidence 8) [BE37C9C4] (AR v2)
Copy OK
Track 7
Filename C:\New Folder\07 - Cuco Y Olga.wav
Peak level 89.4 %
Extraction speed 2.2 X
Track quality 100.0 %
Test CRC 184DC89A
Copy CRC 184DC89A
Accurately ripped (confidence 8) [B7BA75D8] (AR v2)
Copy OK
Track 8
Filename C:\New Folder\08 - Azteca.wav
Peak level 79.1 %
Extraction speed 2.1 X
Track quality 100.0 %
Test CRC 93F81330
Copy CRC 93F81330
Accurately ripped (confidence 8) [81FFB4FF] (AR v2)
Copy OK
Track 9
Filename C:\New Folder\09 - La Mogolla.wav
Peak level 100.0 %
Extraction speed 2.2 X
Track quality 100.0 %
Test CRC C4587EEE
Copy CRC C4587EEE
Accurately ripped (confidence 8) [CD5FFCA8] (AR v2)
Copy OK
All tracks accurately ripped
No errors occurred
End of status report
---- CUETools DB Plugin V2.1.4
[CTDB TOCID: I9ZOU1CNvdZa7axJdwVa72TPVjU-] found
Submit result: already submitted
Track | CTDB Status
1 | (5/5) Accurately ripped
2 | (5/5) Accurately ripped
3 | (5/5) Accurately ripped
4 | (5/5) Accurately ripped
5 | (5/5) Accurately ripped
6 | (5/5) Accurately ripped
7 | (5/5) Accurately ripped
8 | (5/5) Accurately ripped
9 | (5/5) Accurately ripped
==== Log checksum 7CD205B8DA1E929073E512C7DD6D8D14D0F737D80D925E361AB70D7F5AE968C9 ====
 
Содержание индексной карты (.CUE)
REM GENRE Latin
REM DATE 1993
REM DISCID 720CD609
REM COMMENT "ExactAudioCopy v1.0b4"
PERFORMER "Mongo Santamaria And Friends"
TITLE "Mambo Mongo"
FILE "01 - Dark Before The Dawn.wav" WAVE
TRACK 01 AUDIO
TITLE "Dark Before The Dawn"
PERFORMER "Mongo Santamaria And Friends"
PREGAP 00:00:37
INDEX 01 00:00:00
TRACK 02 AUDIO
TITLE "Caribbean Sunrise"
PERFORMER "Mongo Santamaria And Friends"
INDEX 00 05:42:71
FILE "02 - Caribbean Sunrise.wav" WAVE
INDEX 01 00:00:00
TRACK 03 AUDIO
TITLE "Mambo Mongo"
PERFORMER "Mongo Santamaria And Friends"
INDEX 00 04:45:15
FILE "03 - Mambo Mongo.wav" WAVE
INDEX 01 00:00:00
TRACK 04 AUDIO
TITLE "Los Ninos Del Mundo"
PERFORMER "Mongo Santamaria And Friends"
INDEX 00 06:53:63
FILE "04 - Los Ninos Del Mundo.wav" WAVE
INDEX 01 00:00:00
TRACK 05 AUDIO
TITLE "Cali"
PERFORMER "Mongo Santamaria And Friends"
INDEX 00 06:02:35
FILE "05 - Cali.wav" WAVE
INDEX 01 00:00:00
TRACK 06 AUDIO
TITLE "Are They Only Dreams"
PERFORMER "Mongo Santamaria And Friends"
INDEX 00 05:04:10
FILE "06 - Are They Only Dreams.wav" WAVE
INDEX 01 00:00:00
FILE "07 - Cuco Y Olga.wav" WAVE
TRACK 07 AUDIO
TITLE "Cuco Y Olga"
PERFORMER "Mongo Santamaria And Friends"
INDEX 01 00:00:00
FILE "08 - Azteca.wav" WAVE
TRACK 08 AUDIO
TITLE "Azteca"
PERFORMER "Mongo Santamaria And Friends"
INDEX 01 00:00:00
FILE "09 - La Mogolla.wav" WAVE
TRACK 09 AUDIO
TITLE "La Mogolla"
PERFORMER "Mongo Santamaria And Friends"
INDEX 01 00:00:00
 
CUETools log
[CUETools log; Date: 21.12.2015 11:40:56; Version: 2.0.9]
Pregap length 00:00:37.
[AccurateRip ID: 0011d7a3-0083659d-720cd609] found.
Track [ CRC ] Status
01 [2c0e1139] (09/17) Accurately ripped
02 [d23c2e34] (09/17) Accurately ripped
03 [eef61864] (09/17) Accurately ripped
04 [e655e6ed] (09/17) Accurately ripped
05 [1854ad72] (09/17) Accurately ripped
06 [9a078bc9] (09/17) Accurately ripped
07 [0bddfc57] (09/17) Accurately ripped
08 [25af7c42] (09/17) Accurately ripped
09 [50bbdf75] (08/16) Accurately ripped
Track Peak [ CRC32 ] [W/O NULL] [ LOG ]
-- 100,0 [75341811] [3D379D8B]
01 68,7 [28CD6117] [ECE9147B] CRC32
02 67,9 [A634B3B8] [558B3A16] CRC32
03 71,8 [F9FFA7EF] [1EB23BEF] CRC32
04 79,5 [8A9FDDB7] [036EA435] CRC32
05 74,6 [45ED5207] [E5349084] CRC32
06 69,9 [67375A39] [5D24F2A6] CRC32
07 89,4 [184DC89A] [04B00B60] CRC32
08 79,1 [93F81330] [29F7F721] CRC32
09 100,0 [C4587EEE] [57338ADA] CRC32
20:08
337
Нет комментариев. Ваш будет первым!