Поиск

(Afro-Cuban, Latin Jazz) [CD] Eddie Cano & His Quintet - Brought Back Live From P.J.'s (1967) - 2014, FLAC (tracks+.cue), lossless

(Afro-Cuban, Latin Jazz) [CD] Eddie Cano & His Quintet - Brought Back Live From P.J.'s (1967) - 2014, FLAC (tracks+.cue), lossless
Eddie Cano & His Quintet - Brought Back Live From P.J.'s (1967) Жанр: Afro-Cuban, Latin Jazz
Носитель: CD
Страна-производитель диска (релиза): Japan
Год издания: 2014
Издатель (лейбл): Dunhill Records/Universal Music Japan
Номер по каталогу: UCCU-90067
Аудиокодек: FLAC (*.flac)
Тип рипа: tracks+.cue
Битрейт аудио: lossless
Продолжительность: 34:25
Rip by ruskaval
Наличие сканов в содержимом раздачи: да
Треклист:
01. Slip, Slip (2:38)
02. La Bamba (3:24)
03. Wack Wack (2:42)
04. Mira Como Es (3:43)
05. I Can't Cry Anymore (3:18)
06. Monday Monday (3:19)
07. Louie Louie (2:09)
08. Guantanamera (2:24)
09. Brown & Blue (2:41)
10. I'll Never Forget You (3:04)
11. Don't Ever Change (2:20)
12. El Pito (I'll Never Go Back To Georgia) (2:43)
Personnel:
Eddie Cano - p
David Troncoso - b
Eddie Talamantes - d
Frank Gutierrez - perc
Max Garduno - cga
 
 
Лог создания рипа
Exact Audio Copy V1.1 from 23. June 2015
EAC extraction logfile from 9. August 2015, 15:16
Eddie Cano & His Quintet / Brought Back Live From P. J.'s
Used drive : ATAPI iHAS124 B Adapter: 2 ID: 0
Read mode : Secure
Utilize accurate stream : Yes
Defeat audio cache : Yes
Make use of C2 pointers : No
Read offset correction : 6
Overread into Lead-In and Lead-Out : No
Fill up missing offset samples with silence : Yes
Delete leading and trailing silent blocks : No
Null samples used in CRC calculations : Yes
Used interface : Installed external ASPI interface
Gap handling : Appended to previous track
Used output format : User Defined Encoder
Selected bitrate : 1024 kBit/s
Quality : High
Add ID3 tag : No
Command line compressor : C:\Program Files (x86)\FLAC Frontend\tools\flac.exe
Additional command line options : -8 -V -T "ARTIST=%artist%" -T "TITLE=%title%" -T "ALBUM=%albumtitle%" -T "DATE=%year%" -T "TRACKNUMBER=%tracknr%" -T "TOTALTRACKS=%numtracks%" -T "GENRE=%genre%" -T "ALBUMARTIST=%albumartist%" -T "ALBUM ARTIST=%albumartist%" -T "COMMENT=EAC Secure Mode, Test & Copy, AccurateRip, FLAC -8" %source%
TOC of the extracted CD
Track | Start | Length | Start sector | End sector
---------------------------------------------------------
1 | 0:00.00 | 2:38.29 | 0 | 11878
2 | 2:38.29 | 3:23.48 | 11879 | 27151
3 | 6:02.02 | 2:42.24 | 27152 | 39325
4 | 8:44.26 | 3:43.14 | 39326 | 56064
5 | 12:27.40 | 3:17.58 | 56065 | 70897
6 | 15:45.23 | 3:18.40 | 70898 | 85787
7 | 19:03.63 | 2:08.68 | 85788 | 95455
8 | 21:12.56 | 2:23.45 | 95456 | 106225
9 | 23:36.26 | 2:40.73 | 106226 | 118298
10 | 26:17.24 | 3:04.33 | 118299 | 132131
11 | 29:21.57 | 2:19.50 | 132132 | 142606
12 | 31:41.32 | 2:43.34 | 142607 | 154865
Track 1
Filename M:\_EAC\Eddie Cano & His Quintet - Brought Back Live From P. J.'s (1967) [FLAC] {2014 Japan Rare Groove Funk Best Collection 1000}\01 - Slip, Slip.wav
Pre-gap length 0:00:02.00
Peak level 100.0 %
Extraction speed 2.3 X
Track quality 99.9 %
Test CRC ADE38F0F
Copy CRC ADE38F0F
Cannot be verified as accurate (confidence 1) [D271A1F6], AccurateRip returned [F5562013] (AR v2)
Copy OK
Track 2
Filename M:\_EAC\Eddie Cano & His Quintet - Brought Back Live From P. J.'s (1967) [FLAC] {2014 Japan Rare Groove Funk Best Collection 1000}\02 - La Bamba.wav
Peak level 100.0 %
Extraction speed 3.6 X
Track quality 100.0 %
Test CRC 18D308AA
Copy CRC 18D308AA
Cannot be verified as accurate (confidence 1) [4462ADEC], AccurateRip returned [DE1C1DE4] (AR v2)
Copy OK
Track 3
Filename M:\_EAC\Eddie Cano & His Quintet - Brought Back Live From P. J.'s (1967) [FLAC] {2014 Japan Rare Groove Funk Best Collection 1000}\03 - Wack Wack.wav
Peak level 91.6 %
Extraction speed 2.7 X
Track quality 99.9 %
Test CRC 2A71F864
Copy CRC 2A71F864
Cannot be verified as accurate (confidence 1) [2696BCAE], AccurateRip returned [049C72FC] (AR v2)
Copy OK
Track 4
Filename M:\_EAC\Eddie Cano & His Quintet - Brought Back Live From P. J.'s (1967) [FLAC] {2014 Japan Rare Groove Funk Best Collection 1000}\04 - Mira Como Es.wav
Peak level 99.0 %
Extraction speed 4.1 X
Track quality 100.0 %
Test CRC 57A2141A
Copy CRC 57A2141A
Cannot be verified as accurate (confidence 1) [F27DC82D], AccurateRip returned [8C7FA315] (AR v2)
Copy OK
Track 5
Filename M:\_EAC\Eddie Cano & His Quintet - Brought Back Live From P. J.'s (1967) [FLAC] {2014 Japan Rare Groove Funk Best Collection 1000}\05 - I Can't Cry Anymore.wav
Peak level 95.2 %
Extraction speed 4.3 X
Track quality 100.0 %
Test CRC CA783FB2
Copy CRC CA783FB2
Cannot be verified as accurate (confidence 1) [887B25A9], AccurateRip returned [7853F9DF] (AR v2)
Copy OK
Track 6
Filename M:\_EAC\Eddie Cano & His Quintet - Brought Back Live From P. J.'s (1967) [FLAC] {2014 Japan Rare Groove Funk Best Collection 1000}\06 - Monday Monday.wav
Peak level 100.0 %
Extraction speed 3.5 X
Track quality 99.9 %
Test CRC D9EBDFE4
Copy CRC D9EBDFE4
Cannot be verified as accurate (confidence 1) [901571BD], AccurateRip returned [08F5B576] (AR v2)
Copy OK
Track 7
Filename M:\_EAC\Eddie Cano & His Quintet - Brought Back Live From P. J.'s (1967) [FLAC] {2014 Japan Rare Groove Funk Best Collection 1000}\07 - Louie Louie.wav
Pre-gap length 0:00:01.57
Peak level 98.2 %
Extraction speed 4.3 X
Track quality 100.0 %
Test CRC CB346963
Copy CRC CB346963
Cannot be verified as accurate (confidence 1) [C558A50D], AccurateRip returned [F2006A62] (AR v2)
Copy OK
Track 8
Filename M:\_EAC\Eddie Cano & His Quintet - Brought Back Live From P. J.'s (1967) [FLAC] {2014 Japan Rare Groove Funk Best Collection 1000}\08 - Guantanamera.wav
Peak level 88.6 %
Extraction speed 4.6 X
Track quality 100.0 %
Test CRC BDC69A93
Copy CRC BDC69A93
Cannot be verified as accurate (confidence 1) [3C0E9675], AccurateRip returned [2EF9038A] (AR v2)
Copy OK
Track 9
Filename M:\_EAC\Eddie Cano & His Quintet - Brought Back Live From P. J.'s (1967) [FLAC] {2014 Japan Rare Groove Funk Best Collection 1000}\09 - Brown & Blue.wav
Peak level 83.9 %
Extraction speed 3.6 X
Track quality 99.9 %
Test CRC 49C67293
Copy CRC 49C67293
Cannot be verified as accurate (confidence 1) [E60FDD9B], AccurateRip returned [48166850] (AR v2)
Copy OK
Track 10
Filename M:\_EAC\Eddie Cano & His Quintet - Brought Back Live From P. J.'s (1967) [FLAC] {2014 Japan Rare Groove Funk Best Collection 1000}\10 - I'll Never Forget You.wav
Peak level 94.2 %
Extraction speed 5.2 X
Track quality 100.0 %
Test CRC 540EAEB4
Copy CRC 540EAEB4
Cannot be verified as accurate (confidence 1) [66AA1250], AccurateRip returned [7F83BF2E] (AR v2)
Copy OK
Track 11
Filename M:\_EAC\Eddie Cano & His Quintet - Brought Back Live From P. J.'s (1967) [FLAC] {2014 Japan Rare Groove Funk Best Collection 1000}\11 - Don't Ever Change.wav
Peak level 82.1 %
Extraction speed 5.0 X
Track quality 100.0 %
Test CRC C961F0DC
Copy CRC C961F0DC
Cannot be verified as accurate (confidence 1) [BCD9A084], AccurateRip returned [E458BBA1] (AR v2)
Copy OK
Track 12
Filename M:\_EAC\Eddie Cano & His Quintet - Brought Back Live From P. J.'s (1967) [FLAC] {2014 Japan Rare Groove Funk Best Collection 1000}\12 - El Pito (I'll Never Go Back To Georgia).wav
Peak level 99.2 %
Extraction speed 5.3 X
Track quality 100.0 %
Test CRC 1696B213
Copy CRC 1696B213
Cannot be verified as accurate (confidence 1) [8D23052F], AccurateRip returned [FD6B29B3] (AR v2)
Copy OK
No tracks could be verified as accurate
You may have a different pressing from the one(s) in the database
No errors occurred
End of status report
==== Log checksum CB89D77414D8AB635246922653DF4ABE246DCD1F35A07A34E724C7BF159F07D4 ====
 
Содержание индексной карты (.CUE)
REM GENRE Jazz
REM DATE 1967
REM DISCID A608100C
REM COMMENT "ExactAudioCopy v1.1"
PERFORMER "Eddie Cano & His Quintet"
TITLE "Brought Back Live From P. J.'s"
FILE "01 - Slip, Slip.wav" WAVE
TRACK 01 AUDIO
TITLE "Slip, Slip"
PERFORMER "Eddie Cano & His Quintet"
INDEX 01 00:00:00
FILE "02 - La Bamba.wav" WAVE
TRACK 02 AUDIO
TITLE "La Bamba"
PERFORMER "Eddie Cano & His Quintet"
INDEX 01 00:00:00
FILE "03 - Wack Wack.wav" WAVE
TRACK 03 AUDIO
TITLE "Wack Wack"
PERFORMER "Eddie Cano & His Quintet"
INDEX 01 00:00:00
FILE "04 - Mira Como Es.wav" WAVE
TRACK 04 AUDIO
TITLE "Mira Como Es"
PERFORMER "Eddie Cano & His Quintet"
INDEX 01 00:00:00
FILE "05 - I Can't Cry Anymore.wav" WAVE
TRACK 05 AUDIO
TITLE "I Can't Cry Anymore"
PERFORMER "Eddie Cano & His Quintet"
INDEX 01 00:00:00
FILE "06 - Monday Monday.wav" WAVE
TRACK 06 AUDIO
TITLE "Monday Monday"
PERFORMER "Eddie Cano & His Quintet"
INDEX 01 00:00:00
TRACK 07 AUDIO
TITLE "Louie Louie"
PERFORMER "Eddie Cano & His Quintet"
INDEX 00 03:16:58
FILE "07 - Louie Louie.wav" WAVE
INDEX 01 00:00:00
FILE "08 - Guantanamera.wav" WAVE
TRACK 08 AUDIO
TITLE "Guantanamera"
PERFORMER "Eddie Cano & His Quintet"
INDEX 01 00:00:00
FILE "09 - Brown & Blue.wav" WAVE
TRACK 09 AUDIO
TITLE "Brown & Blue"
PERFORMER "Eddie Cano & His Quintet"
INDEX 01 00:00:00
FILE "10 - I'll Never Forget You.wav" WAVE
TRACK 10 AUDIO
TITLE "I'll Never Forget You"
PERFORMER "Eddie Cano & His Quintet"
INDEX 01 00:00:00
FILE "11 - Don't Ever Change.wav" WAVE
TRACK 11 AUDIO
TITLE "Don't Ever Change"
PERFORMER "Eddie Cano & His Quintet"
INDEX 01 00:00:00
FILE "12 - El Pito (I'll Never Go Back To Georgia).wav" WAVE
TRACK 12 AUDIO
TITLE "El Pito (I'll Never Go Back To Georgia)"
PERFORMER "Eddie Cano & His Quintet"
INDEX 01 00:00:00
20:07
368
Нет комментариев. Ваш будет первым!