Поиск

(Afro-beat, World, Ethnic Jazz, Pop) Dobacaracol - Soley - 2006, FLAC (tracks+.cue), lossless

Dobacaracol - Soley
Жанр: Afro-beat, World, Ethnic Jazz, Pop
Год выпуска диска: 2006
Аудио кодек: FLAC
Тип рипа: tracks+.cue
Битрейт аудио: lossless
Продолжительность: 0:54:31
Трэклист:
01. Baiser sale (3:33)
02. Etrange (3:36)
03. Anda (4:25)
04. Droit devant (3:31)
05. Fievre (3:34)
06. Maca E (3:29)
07. Pris de vertige (3:26)
08. Nakile (4:45)
09. Brume (3:29)
10. Rouge (2:52)
11. Amazone (2:28)
12. Love (15:24)
 
EAC log
Exact Audio Copy V0.99 prebeta 5 from 4. May 2009
EAC extraction logfile from 8. December 2009, 19:21
Dobacaracol / Soley
Used drive : TSSTcorpDVD+-RW TS-T633A Adapter: 1 ID: 0
Read mode : Secure
Utilize accurate stream : Yes
Defeat audio cache : Yes
Make use of C2 pointers : No
Read offset correction : 6
Overread into Lead-In and Lead-Out : No
Fill up missing offset samples with silence : Yes
Delete leading and trailing silent blocks : No
Null samples used in CRC calculations : Yes
Used interface : Native Win32 interface for Win NT & 2000
Gap handling : Appended to previous track
Used output format : User Defined Encoder
Selected bitrate : 128 kBit/s
Quality : High
Add ID3 tag : No
Command line compressor : S:\Program Files (x86)\Exact Audio Copy\Flac\flac.exe
Additional command line options : -V -5 -T "artist=%a" -T "title=%t" -T "album=%g" -T "date=%y" -T "tracknumber=%n" -T "genre=%m" %s
TOC of the extracted CD
Track | Start | Length | Start sector | End sector
---------------------------------------------------------
1 | 0:00.00 | 3:32.39 | 0 | 15938
2 | 3:32.39 | 3:35.67 | 15939 | 32130
3 | 7:08.31 | 4:24.45 | 32131 | 51975
4 | 11:33.01 | 3:30.57 | 51976 | 67782
5 | 15:03.58 | 3:33.54 | 67783 | 83811
6 | 18:37.37 | 3:29.36 | 83812 | 99522
7 | 22:06.73 | 3:25.61 | 99523 | 114958
8 | 25:32.59 | 4:45.19 | 114959 | 136352
9 | 30:18.03 | 3:29.34 | 136353 | 152061
10 | 33:47.37 | 2:51.72 | 152062 | 164958
11 | 36:39.34 | 2:27.59 | 164959 | 176042
12 | 39:07.18 | 15:24.19 | 176043 | 245361
13 | 57:03.37 | 14:26.68 | 256762 | 321779
Track 1
Filename E:\Musique\Flac\A ranger\Dobacaracol - 2005 - Soley\01 - Baiser sale.wav
Pre-gap length 0:00:02.00
Peak level 97.7 %
Track quality 99.9 %
Test CRC BC114D95
Copy CRC BC114D95
Accurately ripped (confidence 3) [632FFE4E]
Copy OK
Track 2
Filename E:\Musique\Flac\A ranger\Dobacaracol - 2005 - Soley\02 - Etrange.wav
Peak level 94.4 %
Track quality 100.0 %
Test CRC 2A744A21
Copy CRC 2A744A21
Accurately ripped (confidence 3) [302B9919]
Copy OK
Track 3
Filename E:\Musique\Flac\A ranger\Dobacaracol - 2005 - Soley\03 - Anda.wav
Peak level 97.7 %
Track quality 100.0 %
Test CRC BDC36033
Copy CRC BDC36033
Accurately ripped (confidence 3) [31595120]
Copy OK
Track 4
Filename E:\Musique\Flac\A ranger\Dobacaracol - 2005 - Soley\04 - Droit devant.wav
Peak level 97.8 %
Track quality 100.0 %
Test CRC 32BF99A7
Copy CRC 32BF99A7
Accurately ripped (confidence 3) [2CA26F41]
Copy OK
Track 5
Filename E:\Musique\Flac\A ranger\Dobacaracol - 2005 - Soley\05 - Fievre.wav
Peak level 97.8 %
Track quality 100.0 %
Test CRC C0C0DFC6
Copy CRC C0C0DFC6
Accurately ripped (confidence 3) [3E084149]
Copy OK
Track 6
Filename E:\Musique\Flac\A ranger\Dobacaracol - 2005 - Soley\06 - Maca E.wav
Peak level 97.8 %
Track quality 100.0 %
Test CRC 63C06FC4
Copy CRC 63C06FC4
Accurately ripped (confidence 3) [79F4BDD7]
Copy OK
Track 7
Filename E:\Musique\Flac\A ranger\Dobacaracol - 2005 - Soley\07 - Pris de vertige.wav
Peak level 100.0 %
Track quality 100.0 %
Test CRC DC98F3E9
Copy CRC DC98F3E9
Accurately ripped (confidence 3) [F1078DF6]
Copy OK
Track 8
Filename E:\Musique\Flac\A ranger\Dobacaracol - 2005 - Soley\08 - Nakile.wav
Peak level 94.4 %
Track quality 99.9 %
Test CRC 180A98E3
Copy CRC 180A98E3
Accurately ripped (confidence 3) [78BE33A2]
Copy OK
Track 9
Filename E:\Musique\Flac\A ranger\Dobacaracol - 2005 - Soley\09 - Brume.wav
Peak level 97.7 %
Track quality 100.0 %
Test CRC 620C0C46
Copy CRC 620C0C46
Accurately ripped (confidence 3) [50875BF0]
Copy OK
Track 10
Filename E:\Musique\Flac\A ranger\Dobacaracol - 2005 - Soley\10 - Rouge.wav
Peak level 100.0 %
Track quality 100.0 %
Test CRC 28250001
Copy CRC 28250001
Accurately ripped (confidence 3) [5320B3D3]
Copy OK
Track 11
Filename E:\Musique\Flac\A ranger\Dobacaracol - 2005 - Soley\11 - Amazone.wav
Peak level 97.8 %
Track quality 100.0 %
Test CRC C94040D8
Copy CRC C94040D8
Accurately ripped (confidence 3) [F43387AE]
Copy OK
Track 12
Filename E:\Musique\Flac\A ranger\Dobacaracol - 2005 - Soley\12 - Love.wav
Peak level 97.8 %
Track quality 100.0 %
Test CRC B83D146C
Copy CRC B83D146C
Accurately ripped (confidence 3) [5231B497]
Copy OK
All tracks accurately ripped
No errors occurred
End of status report
 
Audiocheker's log
Started at: воскресенье, 07. 03. 2010. - 22:18.07
12 files found
01 -===- G:\Downloads\Dobacaracol - Soley (2006)\01 - Baiser sale.flac
Extracted successfully
Conclusion: this track is CDDA with probability 100%
Tempfile successfully deleted.
02 -===- G:\Downloads\Dobacaracol - Soley (2006)\02 - Etrange.flac
Extracted successfully
Conclusion: this track is CDDA with probability 99%
Tempfile successfully deleted.
03 -===- G:\Downloads\Dobacaracol - Soley (2006)\03 - Anda.flac
Extracted successfully
Conclusion: this track is CDDA with probability 100%
Tempfile successfully deleted.
04 -===- G:\Downloads\Dobacaracol - Soley (2006)\04 - Droit devant.flac
Extracted successfully
Conclusion: this track is CDDA with probability 100%
Tempfile successfully deleted.
05 -===- G:\Downloads\Dobacaracol - Soley (2006)\05 - Fievre.flac
Extracted successfully
Conclusion: this track is CDDA with probability 99%
Tempfile successfully deleted.
06 -===- G:\Downloads\Dobacaracol - Soley (2006)\06 - Maca E.flac
Extracted successfully
Conclusion: this track is CDDA with probability 100%
Tempfile successfully deleted.
07 -===- G:\Downloads\Dobacaracol - Soley (2006)\07 - Pris de vertige.flac
Extracted successfully
Conclusion: this track is CDDA with probability 100%
Tempfile successfully deleted.
08 -===- G:\Downloads\Dobacaracol - Soley (2006)\08 - Nakile.flac
Extracted successfully
Conclusion: this track is CDDA with probability 100%
Tempfile successfully deleted.
09 -===- G:\Downloads\Dobacaracol - Soley (2006)\09 - Brume.flac
Extracted successfully
Conclusion: this track is CDDA with probability 100%
Tempfile successfully deleted.
10 -===- G:\Downloads\Dobacaracol - Soley (2006)\10 - Rouge.flac
Extracted successfully
Conclusion: this track is CDDA with probability 100%
Tempfile successfully deleted.
11 -===- G:\Downloads\Dobacaracol - Soley (2006)\11 - Amazone.flac
Extracted successfully
Conclusion: this track is CDDA with probability 100%
Tempfile successfully deleted.
12 -===- G:\Downloads\Dobacaracol - Soley (2006)\12 - Love.flac
Extracted successfully
Conclusion: this track is CDDA with probability 99%
Tempfile successfully deleted.
Finished at: воскресенье, 07. 03. 2010. - 22:32.12 (operation time: 0:14.04)
 
.cue
REM GENRE Tribal
REM DATE 2005
REM DISCID 9610C20D
REM COMMENT "ExactAudioCopy v0.99pb5"
PERFORMER "Dobacaracol"
TITLE "Soley"
FILE "Dobacaracol - 2005 - Soley\01 - Baiser sale.wav" WAVE
TRACK 01 AUDIO
TITLE "Baiser sale"
PERFORMER "Dobacaracol"
INDEX 01 00:00:00
FILE "Dobacaracol - 2005 - Soley\02 - Etrange.wav" WAVE
TRACK 02 AUDIO
TITLE "Etrange"
PERFORMER "Dobacaracol"
INDEX 01 00:00:00
FILE "Dobacaracol - 2005 - Soley\03 - Anda.wav" WAVE
TRACK 03 AUDIO
TITLE "Anda"
PERFORMER "Dobacaracol"
INDEX 01 00:00:00
FILE "Dobacaracol - 2005 - Soley\04 - Droit devant.wav" WAVE
TRACK 04 AUDIO
TITLE "Droit devant"
PERFORMER "Dobacaracol"
INDEX 01 00:00:00
FILE "Dobacaracol - 2005 - Soley\05 - Fievre.wav" WAVE
TRACK 05 AUDIO
TITLE "Fievre"
PERFORMER "Dobacaracol"
INDEX 01 00:00:00
FILE "Dobacaracol - 2005 - Soley\06 - Maca E.wav" WAVE
TRACK 06 AUDIO
TITLE "Maca E"
PERFORMER "Dobacaracol"
INDEX 01 00:00:00
FILE "Dobacaracol - 2005 - Soley\07 - Pris de vertige.wav" WAVE
TRACK 07 AUDIO
TITLE "Pris de vertige"
PERFORMER "Dobacaracol"
INDEX 01 00:00:00
FILE "Dobacaracol - 2005 - Soley\08 - Nakile.wav" WAVE
TRACK 08 AUDIO
TITLE "Nakile"
PERFORMER "Dobacaracol"
INDEX 01 00:00:00
FILE "Dobacaracol - 2005 - Soley\09 - Brume.wav" WAVE
TRACK 09 AUDIO
TITLE "Brume"
PERFORMER "Dobacaracol"
INDEX 01 00:00:00
FILE "Dobacaracol - 2005 - Soley\10 - Rouge.wav" WAVE
TRACK 10 AUDIO
TITLE "Rouge"
PERFORMER "Dobacaracol"
INDEX 01 00:00:00
FILE "Dobacaracol - 2005 - Soley\11 - Amazone.wav" WAVE
TRACK 11 AUDIO
TITLE "Amazone"
PERFORMER "Dobacaracol"
INDEX 01 00:00:00
FILE "Dobacaracol - 2005 - Soley\12 - Love.wav" WAVE
TRACK 12 AUDIO
TITLE "Love"
PERFORMER "Dobacaracol"
INDEX 01 00:00:00
TRACK 13 MODEx/2xxx
TITLE "Clip video"
PERFORMER "Dobacaracol"
INDEX 00 15:24:19
Доп. информация:
Источник - другой трекер. Сканов нет. Релизер - darwin42.
Об исполнителе:
Dobacaracol - это две смешливые девчушки родом из канадского Квебека. Остается только гадать, откуда у бледнолицых африканская стать и шоколадного же цвета чувство ритма.
В подтверждение и для затравки, пожалуй, два клипчика: Étrange и Baiser Salé.
14:05
330
Нет комментариев. Ваш будет первым!