Поиск

(Afro-beat, Jazz) Fela Kuti – Alagbon Close / Why Black Man Dey Suffer - 2007, FLAC (tracks+.cue), lossless

(Afro-beat, Jazz) Fela Kuti – Alagbon Close / Why Black Man Dey Suffer - 2007, FLAC (tracks+.cue), lossless
Треклист:
Fela Kuti – Alagbon Close / Why Black Man Dey Suffer
Жанр: Afrobeat, Jazz
Год выпуска диска: 2007
Производитель диска: Англия
Аудио кодек: FLAC
Тип рипа: tracks+.cue
Битрейт аудио: lossless
Продолжительность: 56:39
Источник: what.cd
Трэклист:
01. Alagbon Close (17:03)
02. I No Get Eye For Back (11:24)
03. Why Black Man Dey Suffer (15:15)
04. Ikoyi Mentality versus Mushin Mentality (12:57)
Доп. информация:
 
отчёт XLD
X Lossless Decoder version 20090320 (105.1)
XLD extraction logfile from 2009-08-12 22:13:36 -0600
Fela Kuti / Algabon Close / Why Black Man Dey Suffer
Used drive : MATSHITA DVD-R UJ-85J (revision FM0S)
Use cdparanoia mode : YES (CDParanoia III 10.2 engine)
Disable audio cache : OK for the drive with cache less than 2750KB
Make use of C2 pointers : NO
Read offset correction : 102
Max retry count : 100
TOC of the extracted CD
Track | Start | Length | Start sector | End sector
---------------------------------------------------------
1 | 00:00:00 | 17:03:02 | 0 | 76726
2 | 17:03:02 | 11:24:33 | 76727 | 128059
3 | 28:27:35 | 15:15:44 | 128060 | 196728
4 | 43:43:04 | 12:57:58 | 196729 | 255061
All Tracks
Album gain : -7.09 dB
Peak : 0.998871
Track 01
Filename : /XLD/01 Fela Kuti - Alagbon Close.flac
/XLD/01 Fela Kuti - Alagbon Close.mp3
Track gain : -8.09 dB
Peak : 0.998871
CRC32 hash (test run) : 2B6B888E
CRC32 hash : 2B6B888E
CRC32 hash (skip zero) : 183660DF
AccurateRip signature : 673C6AEB
->Track not present in AccurateRip database.
Statistics
Read error : 0
Skipped (treated as error) : 0
Edge jitter error (maybe fixed) : 0
Atom jitter error (maybe fixed) : 0
Drift error (maybe fixed) : 0
Dropped bytes error (maybe fixed) : 0
Duplicated bytes error (maybe fixed) : 0
Inconsistency in error sectors : 0
Track 02
Filename : /XLD/02 Fela Kuti - I No Get Eye For Back.flac
/XLD/02 Fela Kuti - I No Get Eye For Back.mp3
Track gain : -6.18 dB
Peak : 0.998871
CRC32 hash (test run) : 983DA92E
CRC32 hash : 983DA92E
CRC32 hash (skip zero) : 1D691F32
AccurateRip signature : 9761EB16
->Track not present in AccurateRip database.
Statistics
Read error : 0
Skipped (treated as error) : 0
Edge jitter error (maybe fixed) : 0
Atom jitter error (maybe fixed) : 0
Drift error (maybe fixed) : 0
Dropped bytes error (maybe fixed) : 0
Duplicated bytes error (maybe fixed) : 0
Inconsistency in error sectors : 0
Track 03
Filename : /XLD/03 Fela Kuti - Why Black Man Dey Suffer.flac
/XLD/03 Fela Kuti - Why Black Man Dey Suffer.mp3
Track gain : -6.84 dB
Peak : 0.998871
CRC32 hash (test run) : 715A1F2B
CRC32 hash : 715A1F2B
CRC32 hash (skip zero) : 282B3ED5
AccurateRip signature : CFABB88B
->Track not present in AccurateRip database.
Statistics
Read error : 0
Skipped (treated as error) : 0
Edge jitter error (maybe fixed) : 0
Atom jitter error (maybe fixed) : 0
Drift error (maybe fixed) : 0
Dropped bytes error (maybe fixed) : 0
Duplicated bytes error (maybe fixed) : 0
Inconsistency in error sectors : 0
Track 04
Filename : /XLD/04 Fela Kuti - Ikoyi Mentality versus Mushin Mentality.flac
/XLD/04 Fela Kuti - Ikoyi Mentality versus Mushin Mentality.mp3
Track gain : -6.80 dB
Peak : 0.998871
CRC32 hash (test run) : BB2CAE32
CRC32 hash : BB2CAE32
CRC32 hash (skip zero) : 9B2EF34A
AccurateRip signature : 436411A6
->Track not present in AccurateRip database.
Statistics
Read error : 0
Skipped (treated as error) : 0
Edge jitter error (maybe fixed) : 0
Atom jitter error (maybe fixed) : 0
Drift error (maybe fixed) : 0
Dropped bytes error (maybe fixed) : 0
Duplicated bytes error (maybe fixed) : 0
Inconsistency in error sectors : 0
No errors occurred
End of status report
 
CUE
TITLE "Algabon Close / Why Black Man Dey Suffer"
PERFORMER "Fela Kuti"
REM GENRE "Afrobeat"
FILE "01 Fela Kuti - Alagbon Close.wav" WAVE
TRACK 01 AUDIO
TITLE "Alagbon Close"
INDEX 01 00:00:00
TRACK 02 AUDIO
TITLE "I No Get Eye For Back"
INDEX 00 17:00:19
FILE "02 Fela Kuti - I No Get Eye For Back.wav" WAVE
INDEX 01 00:00:00
TRACK 03 AUDIO
TITLE "Why Black Man Dey Suffer"
INDEX 00 11:21:50
FILE "03 Fela Kuti - Why Black Man Dey Suffer.wav" WAVE
INDEX 01 00:00:00
TRACK 04 AUDIO
TITLE "Ikoyi Mentality versus Mushin Mentality"
INDEX 00 15:12:61
FILE "04 Fela Kuti - Ikoyi Mentality versus Mushin Mentality.wav" WAVE
INDEX 01 00:00:00
 
спектр
14:04
353
Нет комментариев. Ваш будет первым!