Поиск

2022 Triplicao - Rostros {DVK} [24-96]

2022 Triplicao - Rostros {DVK} [24-96]
Стили:
Дата издания диска:
13 января 2022
Носитель:
WEB
Формат:
PCM
Тип рипа:
tracks
Контейнер:
FLAC (*.flac)
Количество каналов:
2.0
Разрядность/ЧД:
24/96
Битрейт аудио:
lossless
Время звучания:
00:51:20
Наличие сканов:
только обложка

01 - Peluechucho (06:06)
02 - Personajes (04:39)
03 - Tránsito (06:53)
04 - 4o Primo (05:43)
05 - Ojos Egipcios (05:34)
06 - Catarsis (07:57)
07 - Tímido (07:25)
08 - Rostros (07:03)

Состав:
  • Alejandro Gonzalez — drums
  • Lenin Alvarez — bass
  • Jorge Lara — keys
Лог проверки качества
foobar2000 1.4.2 / Dynamic Range Meter 1.1.1
log date: 2022-01-14 08:09:48
--------------------------------------------------------------------------------
Analyzed: Triplicao / Rostros
--------------------------------------------------------------------------------
DR         Peak         RMS     Duration Track
--------------------------------------------------------------------------------
DR7       -0.20 dB    -9.00 dB      6:06 01-Peluechucho
DR7       -0.20 dB    -8.85 dB      4:39 02-Personajes
DR9       -0.20 dB   -11.09 dB      6:53 03-TrГЎnsito
DR9       -0.20 dB   -10.02 dB      5:43 04-4o Primo
DR8       -0.20 dB    -9.47 dB      5:34 05-Ojos Egipcios
DR7       -0.20 dB    -9.76 dB      7:57 06-Catarsis
DR8       -0.20 dB   -10.19 dB      7:25 07-TГ­mido
DR9       -0.20 dB   -11.48 dB      7:03 08-Rostros
--------------------------------------------------------------------------------
Number of tracks:  8
Official DR value: DR8
Samplerate:        96000 Hz
Channels:          2
Bits per sample:   24
Bitrate:           2757 kbps
Codec:             FLAC
================================================================================
Приватный:
Нет (DHT включён)
Размер:
1.02 Гб (1,097,391,598 байт) » файлов: 9
Участники:
0 раздают, 0 качают (0 участников всего)
Внешние участники:
--- [ Обновить ]
18:15
360
Нет комментариев. Ваш будет первым!