Поиск

2016 Francesco Ciniglio Trio - Wood {Fresh Sound} [24-44.1]

2016 Francesco Ciniglio Trio - Wood {Fresh Sound} [24-44.1]
Стили:
Дата записи диска:
17 марта 2015
Место записи:
The Bunker, Brooklyn
Дата издания диска:
15 марта 2016
Издатель (лейбл):
Номер по каталогу:
FSNT-496
Носитель:
WEB
Формат:
PCM
Тип рипа:
tracks
Контейнер:
FLAC (*.flac)
Количество каналов:
2.0
Разрядность/ЧД:
24/44,1
Битрейт аудио:
lossless
Наличие сканов:
только обложка

01. Childhood Toy  02:02
02. Wood  06:22
03. What Did You Say?  03:13
04. Edda  04:47
05. Duke Ellington's Sound of Love  05:43
06. Dance of the Infidels  07:57
07. Outer Space  05:35
08. New Super Mario  01:57
09. Now I Get It  02:27
10. Ina  05:33
11. Put Away That Toy  02:00

Состав:
  •     Bass – Joe Sanders (3)
  •     Drums – Francesco Ciniglio
  •     Executive-Producer – Jordi Pujol
  •     Mixed By, Mastered By – David Darlington
  •     Piano – Aaron Parks
  •     Producer [Produced By] – Francesco Ciniglio
  •     Recorded By – Todd Carder
Лог проверки качества
foobar2000 1.6.10 / Dynamic Range Meter 1.1.1
log date: 2022-10-15 12:24:30

--------------------------------------------------------------------------------
Analyzed: Francesco Ciniglio / Wood
--------------------------------------------------------------------------------

DR         Peak         RMS     Duration Track
--------------------------------------------------------------------------------
DR12      -6.07 dB   -21.59 dB      2:03 01-Childhood Toy
DR9       -0.40 dB   -12.17 dB      6:23 02-Wood
--------------------------------------------------------------------------------

Number of tracks:  2
Official DR value: DR10

Samplerate:        44100 Hz
Channels:          2
Bits per sample:   24
Bitrate:           1587 kbps
Codec:             FLAC
================================================================================

--------------------------------------------------------------------------------
Statistics for: 03-What Did You Say?
Number of samples: 8517180
Duration: 3:13 
--------------------------------------------------------------------------------

                 Left              Right

Peak Value:     -0.47 dB   ---     -0.10 dB   
Avg RMS:       -14.29 dB   ---    -12.91 dB   
DR channel:     10.51 dB   ---     10.33 dB   
--------------------------------------------------------------------------------

Official DR Value: DR10

Samplerate:        44100 Hz
Channels:          2
Bits per sample:   16
Bitrate:           788 kbps
Codec:             FLAC
================================================================================
--------------------------------------------------------------------------------
Analyzed: Francesco Ciniglio / Wood
--------------------------------------------------------------------------------

DR         Peak         RMS     Duration Track
--------------------------------------------------------------------------------
DR9       -0.50 dB   -11.57 dB      4:48 04-Edda
DR12      -0.46 dB   -15.73 dB      5:44 05-Duke Ellington's Sound of Love
DR9       -0.40 dB   -11.25 dB      7:57 06-Dance of the Infidels
DR9       -0.40 dB   -13.56 dB      5:35 07-Outer Space
DR9       -0.40 dB   -11.90 dB      1:57 08-New Super Mario
DR9       -0.40 dB   -12.65 dB      2:28 09-Now I Get It
DR9       -0.40 dB   -13.21 dB      5:34 10-Ina
DR13      -4.10 dB   -21.24 dB      2:01 11-Put Away That Toy
--------------------------------------------------------------------------------

Number of tracks:  8
Official DR value: DR10

Samplerate:        44100 Hz
Channels:          2
Bits per sample:   24
Bitrate:           1201 kbps
Codec:             FLAC
================================================================================
Приватный:
Нет (DHT включён)
Размер:
509.04 Мб (533,768,438 байт) » файлов: 14
Участники:
0 раздают, 0 качают (0 участников всего)
Внешние участники:
--- [ Обновить ]
12:40
464
Нет комментариев. Ваш будет первым!