Поиск

2022 Neil Swainson - Fire in the West {Cellar Live} [24-96]

2022 Neil Swainson - Fire in the West {Cellar Live} [24-96]
Стили:
Дата издания диска:
19 августа 2022
Издатель (лейбл):
Носитель:
WEB
Формат:
PCM
Тип рипа:
tracks
Контейнер:
FLAC (*.flac)
Количество каналов:
2.0
Разрядность/ЧД:
24/96
Битрейт аудио:
lossless
Наличие сканов:
только обложка

This album is available on our DC++ hub: dc.pro-jazz.com
Этот альбом доступен на нашем DC++ хабе: dc.pro-jazz.com

01 - Fire in the West 05:46
02 - Fool's Gold 05:08
03 - Cascades 07:41
04 - Standing Back 07:26
05 - Fell Among Thieves 05:30
06 - Kyushu 05:05
07 - Late Afternoon 07:53
08 - Near North 06:04
09 - Gone Away 04:51
10 - Silver Mine 04:18

Состав:
  • Neil Swainson, bass
  • Renee Rosnes, piano
  • Lewis Nash, drums
  • Brad Turner, trumpet
  • Kelly Jefferson, tenor saxophone
Лог проверки качества
foobar2000 1.4.3 / Dynamic Range Meter 1.1.1
log date: 2022-08-21 20:53:44
--------------------------------------------------------------------------------
Analyzed: Neil Swainson / Fire in the West
--------------------------------------------------------------------------------
DR         Peak         RMS     Duration Track
--------------------------------------------------------------------------------
DR12      -1.00 dB   -15.07 dB      5:46 01-Fire in the West
DR14      -1.45 dB   -18.63 dB      5:09 02-Fool's Gold
DR13      -1.00 dB   -16.76 dB      7:42 03-Cascades
DR12      -1.00 dB   -16.35 dB      7:26 04-Standing Back
DR13      -1.73 dB   -17.88 dB      5:31 05-Fell Among Thieves
DR12      -1.00 dB   -15.08 dB      5:06 06-Kyushu
DR13      -1.00 dB   -16.83 dB      7:53 07-Late Afternoon
DR12      -1.00 dB   -15.62 dB      6:04 08-Near North
DR13      -2.06 dB   -20.00 dB      4:51 09-Gone Away
DR12      -1.00 dB   -14.71 dB      4:19 10-Silver Mine
--------------------------------------------------------------------------------
Number of tracks:  10
Official DR value: DR13
Samplerate:        96000 Hz
Channels:          2
Bits per sample:   24
Bitrate:           3172 kbps
Codec:             FLAC
================================================================================
Приватный:
Нет (DHT включён)
Размер:
1.27 Гб (1,366,842,261 байт) » файлов: 14
Участники:
0 раздают, 0 качают (0 участников всего)
Внешние участники:
5 раздают, 2 качают (7 участников всего) [ Обновить ]
09:17
250
Нет комментариев. Ваш будет первым!