Поиск

2022 Mark Turner - Return from the Stars {ECM} [24-96]

2022 Mark Turner - Return from the Stars {ECM} [24-96]
Стили:
Дата издания диска:
25 марта 2022
Издатель (лейбл):
Битрейт аудио:
lossless

Состав:
  • Mark Turner, saxophone
  • Jason Palmer, trumpet
  • Joe Martin, double bass
  • Jonathan Pinson, drums
Лог проверки качества
foobar2000 1.6.6 / Dynamic Range Meter 1.1.1
log date: 2022-03-25 18:01:20
--------------------------------------------------------------------------------
Analyzed: Mark Turner / Return from the Stars
--------------------------------------------------------------------------------
DR         Peak         RMS     Duration Track
--------------------------------------------------------------------------------
DR14      -0.66 dB   -18.82 dB      9:32 01-Return from the Stars
DR15      -0.66 dB   -19.99 dB      7:19 02-Terminus
DR15      -0.67 dB   -19.89 dB      8:53 03-Bridgetown
DR15      -0.64 dB   -17.96 dB     10:22 04-It’s Not Alright With Me
DR14      -0.64 dB   -17.39 dB      4:33 05-Nigeria II
DR14      -0.67 dB   -20.71 dB      5:13 06-Waste Land
DR15      -0.64 dB   -19.19 dB     12:18 07-Unacceptable
DR14      -1.51 dB   -20.04 dB      6:10 08-Lincoln Heights
--------------------------------------------------------------------------------
Number of tracks:  8
Official DR value: DR14
Samplerate:        96000 Hz
Channels:          2
Bits per sample:   24
Bitrate:           2793 kbps
Codec:             FLAC
================================================================================
Скачивание доступно после регистрации!!
Приватный:
Нет (DHT включён)
Размер:
1.29 Гб (1,385,044,284 байт) » файлов: 11
Участники:
0 раздают, 0 качают (0 участников всего)
Внешние участники:
--- [ Обновить ]
23:12
461
Нет комментариев. Ваш будет первым!