Поиск

2022 Elisabeth Melander - Notes from Within {Naxos Sweden, Prophone} [24-96]

2022 Elisabeth Melander - Notes from Within {Naxos Sweden, Prophone} [24-96]
Стили:
Дата издания диска:
13 марта 2022
Битрейт аудио:
lossless

Состав:
  • Elisabeth Melander, vocals
  • Anders Bergcrantz, trumpet
  • Anders ”Chico” Lindvall, guitar
  • Anders Hagberg, sax, flute
  • Inge Petersson-Lindbäck, sax
Лог проверки качества
foobar2000 1.6.6 / Dynamic Range Meter 1.1.1
log date: 2022-03-25 18:42:13
--------------------------------------------------------------------------------
Analyzed: Elisabeth Melander / Notes from Within
--------------------------------------------------------------------------------
DR         Peak         RMS     Duration Track
--------------------------------------------------------------------------------
DR8       -0.30 dB   -11.45 dB      6:10 01-Lille Song
DR8       -0.30 dB   -10.71 dB      5:09 02-Loving Kindness
DR10      -0.30 dB   -13.21 dB      4:47 03-Compassion
DR8       -0.30 dB   -10.45 dB      6:41 04-Feel Good
DR7       -0.30 dB    -9.98 dB      5:36 05-I Wish
DR6       -0.30 dB   -10.26 dB      4:21 06-If
DR7       -0.30 dB   -10.41 dB      6:06 07-Just a Touch
DR6       -0.30 dB    -9.33 dB      6:30 08-One Day in Life
DR10      -0.30 dB   -13.28 dB      5:54 09-A New Path
DR6       -0.30 dB    -8.83 dB      7:50 10-Just One Day
DR9       -0.30 dB   -12.71 dB      5:12 11-Your Heather Perfume
DR8       -0.30 dB   -11.06 dB      6:10 12-Pep Talk
DR7       -0.30 dB   -10.55 dB      5:38 13-Morning Glow Hymn
--------------------------------------------------------------------------------
Number of tracks:  13
Official DR value: DR8
Samplerate:        96000 Hz
Channels:          2
Bits per sample:   24
Bitrate:           3074 kbps
Codec:             FLAC
================================================================================
Приватный:
Нет (DHT включён)
Размер:
1.61 Гб (1,727,777,573 байт) » файлов: 15
Участники:
0 раздают, 0 качают (0 участников всего)
Внешние участники:
2 раздают, 1 качают (3 участников всего) [ Обновить ]
23:32
272
Нет комментариев. Ваш будет первым!