Поиск

2022 Dave Brubeck Trio - Live From Vienna 1967 {Brubeck Editions} [24-44.1]

2022 Dave Brubeck Trio - Live From Vienna 1967 {Brubeck Editions} [24-44.1]
Дата издания диска:
15 апреля 2022
Носитель:
WEB
Формат:
PCM
Тип рипа:
tracks
Контейнер:
FLAC (*.flac)
Количество каналов:
2.0
Разрядность/ЧД:
24/44,1
Битрейт аудио:
lossless
Наличие сканов:
только обложка

Треклист:

01 - St. Louis Blues 08:56
02 - One Moment Worth Years 10:11
03 - Swanee River 06:34
04 - La Paloma Azul 06:10
05 - Someday My Prince Will Come 05:28
06 - Take the A Train 04:16

Состав:
  • Dave Brubeck — piano
  • Joe Morello — drums
  • Eugene Wright — bass
Доп. инфо:

Живая запись Дэйва Брубека 1967 года. В ней отсутствует саксофонист Пол Десмонд, что делает ее уникальной записью трио знаменитого квартета.

Как говорится, шоу должно продолжаться, и когда Пол Десмонд так и не смог приехать в Вену во время европейского турне квартета Дэйва Брубека 1967 года, группа отыграла концерт в составе трио. Теперь запись концерта будет издана, чтобы дать возможность остальному миру услышать эту музыку.
Группа играет свой обычный репертуар джазовых стандартов, таких как Take the A Train и St Louis Blues, но без Десмонда, что дает им больше сольного пространства. Басист Юджин Райт и барабанщик Джо Морелло почти десять лет играли в группе, но никогда не выступали как трио.

Сам Брубек записал несколько трио до того, как Десмонд присоединился к его группе в начале 1950-х годов, но после этого это был только квартет. Десмонд с его легким тембром и лиризмом был большой частью успеха квартета. Сам Брубек часто играл более сложные партии, и когда он впервые нанял музыкально экстравертного Джо Морелло, Десмонд, привыкший к более сдержанным барабанщикам, пригрозил уйти из группы.

Альбом будет выпущен в цифровом формате и на CD в апреле. Он также будет выпущен на виниле в День магазина звукозаписи в том же месяце. Альбом выпущен издательством Brubeck Editions, которое ранее выпустило альбом альтернативных дублей с классического альбома квартета Time Out.

Причиной неявки Десмонда на венский концерт стало то, что он остался в Гамбурге, где группа выступала предыдущей ночью. У Десмонда были серьезные проблемы с алкоголем, что также способствовало распаду группы вскоре после этого тура, но в последующее десятилетие они иногда воссоединялись.

Лог проверки качества
foobar2000 1.4.3 / Dynamic Range Meter 1.1.1
log date: 2022-04-15 18:18:59
--------------------------------------------------------------------------------
Analyzed: Dave Brubeck Trio / Dave Brubeck Trio: Live From Vienna 1967
--------------------------------------------------------------------------------
DR         Peak         RMS     Duration Track
--------------------------------------------------------------------------------
DR9        0.00 dB   -11.15 dB      8:56 01-St. Louis Blues
DR9       -0.06 dB   -11.75 dB     10:11 02-One Moment Worth Years
DR14      -0.27 dB   -18.77 dB      6:10 04-La Paloma Azul
DR13      -0.32 dB   -14.80 dB      5:28 05-Someday My Prince Will Come
DR11       0.00 dB   -12.70 dB      4:16 06-Take the A Train
--------------------------------------------------------------------------------
Number of tracks:  5
Official DR value: DR11
Samplerate:        44100 Hz
Channels:          2
Bits per sample:   24
Bitrate:           1527 kbps
Codec:             FLAC
================================================================================
--------------------------------------------------------------------------------
Statistics for: 03-Swanee River
Number of samples: 18913823
Duration: 6:34
--------------------------------------------------------------------------------
                 Left              Right
Peak Value:     -0.30 dB   ---     -0.30 dB
Avg RMS:       -13.72 dB   ---    -14.01 dB
DR channel:     11.19 dB   ---     11.59 dB
--------------------------------------------------------------------------------
Official DR Value: DR11
Samplerate:        48000 Hz
Channels:          2
Bits per sample:   24
Bitrate:           1579 kbps
Codec:             FLAC
================================================================================
Download available for power users only.
To become a power user - read FAQ.
15:56
94
Нет комментариев. Ваш будет первым!