Поиск

2008 Mieko Hirota - McIntosh Reference Vocal Sound Jazzing - Mico {TMI} [DST64 ISO]

2008 Mieko Hirota - McIntosh Reference Vocal Sound Jazzing - Mico {TMI} [DST64 ISO]
Стили:
Номер по каталогу:
TM-SACD9012.2
Носитель:
SACD
Формат:
DST
Тип рипа:
image
Контейнер:
ISO (*.iso)
Количество каналов:
2.0
Разрядность/ЧД:
64 (2,8 MHz/1 Bit)
Битрейт аудио:
lossless
Наличие сканов:
только обложка

01. What A Difference A Day Makes
02. Moonlight In Vermont
03. Caravan
04. Meditation
05. It's All Right With Me
06. Dream
07. Moonlight Serenade (Studio Live Session)
08. Summertime
09. It Don't Mean A Thing (If It Ain't Got That Swing)
10. The Very Thought Of You
11. Angel Eyes
12. Solitude
13. Agus De Beber
14. My Cherie Amour

Лог проверки качества
foobar2000 1.6.8 / Dynamic Range Meter 1.1.1
log date: 2022-04-16 19:56:43
--------------------------------------------------------------------------------
Analyzed: ? / ?
--------------------------------------------------------------------------------
DR         Peak         RMS     Duration Track
--------------------------------------------------------------------------------
DR10      -6.81 dB   -19.12 dB      3:34 01-What A Difference A Day Makes
DR11      -6.90 dB   -20.34 dB      4:14 02-Moonlight In Vermont
DR8       -6.20 dB   -15.82 dB      3:35 03-Caravan
DR9       -6.76 dB   -18.04 dB      4:22 04-Meditation
DR8       -6.50 dB   -17.25 dB      4:22 05-It's All Right With Me
DR9       -6.61 dB   -17.66 dB      3:32 06-Dream
DR9       -6.39 dB   -17.49 dB      6:16 07-Moonlight Serenade (Studio Live Session)
DR11      -6.78 dB   -20.55 dB      4:00 08-Summertime
DR9       -6.47 dB   -17.17 dB      2:54 09-It's Don;t Mean A Thing (If It Ain't Got That Swing)
DR14      -6.77 dB   -23.81 dB      4:07 10-The Very Thought Of You
DR9       -6.34 dB   -17.47 dB      4:21 11-Angel Eyes
DR13      -6.72 dB   -22.86 dB      4:50 12-Solitude
DR9       -5.67 dB   -16.49 dB      3:22 13-Agus De Beber
DR9       -6.70 dB   -17.82 dB      3:19 14-My Cherie Amour
--------------------------------------------------------------------------------
Number of tracks:  14
Official DR value: DR10
Samplerate:        2822400 Hz / PCM Samplerate: 88200 Hz
Channels:          2
Bits per sample:   1
Bitrate:           5645 kbps
Codec:             DST64
================================================================================
Приватный:
Нет (DHT включён)
Размер:
909.77 Мб (953,962,687 байт) » файлов: 6
Участники:
0 раздают, 0 качают (0 участников всего)
Внешние участники:
14 раздают, 4 качают (18 участников всего) [ Обновить ]
17:31
587
Нет комментариев. Ваш будет первым!