Поиск

2022 Cecile McLorin Salvant - Ghost Song {Nonesuch} [24-96]

2022 Cecile McLorin Salvant - Ghost Song {Nonesuch} [24-96]
Стили:
Дата издания диска:
4 марта 2022
Издатель (лейбл):
Носитель:
WEB
Формат:
PCM
Тип рипа:
tracks
Контейнер:
FLAC (*.flac)
Количество каналов:
2.0
Разрядность/ЧД:
24/96
Битрейт аудио:
lossless
Время звучания:
00:45:58
Наличие сканов:
только обложка

01 - Wuthering Heights 02:43
02 - Optimistic Voices / No Love Dying 07:23
03 - Ghost Song 03:22
04 - Obligation 01:32
05 - Until 06:31
06 - I Lost My Mind 03:40
07 - Moon Song 03:04
08 - Trail Mix 02:23
09 - The World Is Mean 04:48
10 - Dead Poplar 02:36
11 - Thunderclouds 03:36
12 - Unquiet Grave 04:20

Состав:
  • Cécile McLorin Salvant — vocals
Лог проверки качества
foobar2000 1.4.3 / Dynamic Range Meter 1.1.1
log date: 2022-03-04 20:50:00
--------------------------------------------------------------------------------
Analyzed: Cécile McLorin Salvant / Ghost Song
--------------------------------------------------------------------------------
DR         Peak         RMS     Duration Track
--------------------------------------------------------------------------------
DR9        0.00 dB   -13.93 dB      2:44 01-Wuthering Heights
DR11       0.00 dB   -13.17 dB      7:24 02-Optimistic Voices / No Love Dying
DR10       0.00 dB   -13.08 dB      3:23 03-Ghost Song
DR10       0.00 dB   -12.70 dB      1:33 04-Obligation
DR10       0.00 dB   -12.80 dB      6:32 05-Until
DR8        0.00 dB   -11.64 dB      3:41 06-I Lost My Mind
DR11       0.00 dB   -14.62 dB      3:05 07-Moon Song
DR12      -0.82 dB   -16.55 dB      2:24 08-Trail Mix
DR11       0.00 dB   -13.14 dB      4:48 09-The World Is Mean
DR12       0.00 dB   -15.73 dB      2:36 10-Dead Poplar
DR9       -0.22 dB   -11.49 dB      3:37 11-Thunderclouds
DR9       -2.54 dB   -17.38 dB      4:21 12-Unquiet Grave
--------------------------------------------------------------------------------
Number of tracks:  12
Official DR value: DR10
Samplerate:        96000 Hz
Channels:          2
Bits per sample:   24
Bitrate:           2560 kbps
Codec:             FLAC
================================================================================
Приватный:
Нет (DHT включён)
Размер:
934.24 Мб (979,617,540 байт) » файлов: 16
Участники:
0 раздают, 0 качают (0 участников всего)
Внешние участники:
14 раздают, 4 качают (18 участников всего) [ Обновить ]
22:34
423
Нет комментариев. Ваш будет первым!